<?xml version="1.0" standalone="no"?>
<!DOCTYPE svg PUBLIC "-//W3C//DTD SVG 1.1//EN" "http://www.w3.org/Graphics/SVG/1.1/DTD/svg11.dtd">
<svg xmlns="http://www.w3.org/2000/svg">
<defs >
<font id="Commissioner" horiz-adv-x="1169" ><font-face
    font-family="Commissioner Thin SemiBold"
    units-per-em="2000"
    panose-1="0 0 0 0 0 0 0 0 0 0"
    ascent="2034"
    descent="-412"
    alphabetic="0" />
<glyph unicode=" " horiz-adv-x="382" />
<glyph unicode="!" horiz-adv-x="510" d="M154 518Q147 758 137 994T114 1465L399 1473Q388 1238 378 1000T360 521L154 518ZM254 -25Q203 -25 165 -4T107 55T87 140Q87 211 132 256T255 301Q308 301 345 281T403 224T423 140Q423 69 379 22T254 -25Z" />
<glyph unicode="&quot;" horiz-adv-x="829" d="M108 824Q102 991 92 1155T71 1483L331 1489Q320 1326 310 1160T294 826L108 824ZM501 824Q495 991 485 1155T464 1483L724 1489Q713 1326 703 1160T687 826L501 824Z" />
<glyph unicode="#" horiz-adv-x="1385" d="M30 278V468Q130 468 223 468T398 468H882Q964 468 1057 468T1251 468V278Q1151 278 1058 278T882 278H398Q317 278 224 278T30 278ZM222 0Q241 101 259 200T301 428L388 887Q404 976 417 1047T444 1185T470 1326H665Q651
1255 639 1188T613 1049T582 886L496 428Q472 302 454 203T416 0H222ZM135 852V1042Q235 1042 328 1042T503 1042H987Q1069 1042 1162 1042T1356 1042V852Q1256 852 1163 852T987 852H503Q422 852 329 852T135 852ZM712 0Q731 101 749 200T792 428L878 887Q895
976 908 1047T934 1185T961 1326H1155Q1141 1255 1129 1188T1104 1049T1073 886L986 428Q963 302 945 203T906 0H712Z" />
<glyph unicode="$" horiz-adv-x="1140" d="M571 -24Q485 -24 397 -10T234 28T111 77L132 304Q197 269 268 244T414 205T561 191Q641 191 702 210T799 271T834 381Q834 440 792 477T673 542T487 602Q361 640 273 688T138 811T91 1001Q91 1116 142 1205T296 1345T556
1396Q618 1396 680 1388T801 1366T909 1334T995 1297L974 1066Q914 1104 848 1128T717 1165T594 1177Q525 1177 466 1159T369 1102T331 1002Q331 949 364 916T466 856T645 795Q807 745 901 691T1034 564T1074 384Q1074 263 1021 171T857 28T571 -24ZM488 -274Q488
-185 488 -102T488 62T488 223T488 384V948Q488 1029 488 1109T488 1269T488 1434T488 1606H679Q679 1518 679 1434T679 1270T679 1109T679 948V384Q679 302 679 222T679 62T679 -102T679 -274H488Z" />
<glyph unicode="%" horiz-adv-x="1840" d="M384 0Q448 110 510 216T652 459L942 955Q997 1048 1042 1126T1130 1277T1217 1426H1445Q1401 1350 1359 1278T1270 1127T1170 955L880 459Q800 323 738 217T611 0H384ZM449 732Q334 732 247 775T110 900T60 1093Q60
1196 109 1277T247 1406T450 1454Q565 1454 652 1407T789 1278T839 1093Q839 981 790 900T653 776T449 732ZM449 895Q543 895 595 947T647 1091Q647 1148 624 1193T556 1264T450 1290Q358 1290 305 1234T251 1091Q251 999 304 947T449 895ZM1381 -25Q1265 -25 1178
18T1041 143T991 336Q991 439 1040 520T1178 649T1381 697Q1497 697 1584 650T1721 521T1770 336Q1770 225 1721 144T1584 19T1381 -25ZM1381 138Q1474 138 1526 190T1579 334Q1579 391 1555 436T1487 507T1381 533Q1289 533 1236 478T1182 334Q1182 243 1235 191T1381
138Z" />
<glyph unicode="&amp;" horiz-adv-x="1508" d="M1173 0Q1109 68 1044 136T913 272L467 738Q380 828 330 916T280 1108Q280 1219 333 1296T475 1414T674 1454Q786 1454 876 1416T1020 1305T1073 1127Q1073 1043 1042 981T959 875T849 798T735 743L630 888Q697 915
744 947T817 1022T843 1120Q843 1184 799 1227T687 1271Q620 1271 577 1227T534 1111Q534 1050 567 992T675 855L1105 403Q1200 303 1296 202T1488 0H1173ZM527 -23Q378 -23 279 30T130 173T80 374Q80 495 130 583T262 733T434 835L543 682Q478 652 430 611T355
519T328 404Q328 341 355 292T435 215T566 186Q616 186 666 207T763 269T856 370L990 230L997 192H969Q911 125 846 77T703 3T527 -23ZM1138 350L990 497Q1048 587 1102 673T1213 847L1424 710Q1353 620 1282 531T1138 350Z" />
<glyph unicode="&apos;" horiz-adv-x="436" d="M108 824Q102 991 92 1155T71 1483L331 1489Q320 1326 310 1160T294 826L108 824Z" />
<glyph unicode="(" horiz-adv-x="806" d="M577 -257Q473 -189 386 -99T234 103T135 351T100 647Q100 808 135 944T234 1192T385 1393T577 1551L741 1474Q640 1389 553 1275T412 1006T358 647Q358 444 411 289T552 20T741 -180L577 -257Z" />
<glyph unicode=")" horiz-adv-x="806" d="M229 -257L65 -180Q166 -95 253 19T394 288T448 647Q448 850 395 1005T254 1274T65 1474L229 1551Q333 1483 420 1393T572 1191T671 943T706 647Q706 486 671 350T572 102T421 -99T229 -257Z" />
<glyph unicode="*" horiz-adv-x="972" d="M836 725Q742 791 649 857T460 989Q358 1041 255 1093T50 1197L135 1343Q230 1277 323 1211T512 1078Q614 1027 717 975T922 870L836 725ZM135 725L50 870Q152 923 255 975T460 1079Q555 1146 648 1211T836 1343L922 1197Q819
1146 717 1094T512 990Q418 924 324 858T135 725ZM401 575Q409 690 417 804T434 1035Q426 1149 418 1264T401 1493H571Q562 1379 554 1264T538 1035Q546 919 554 805T571 575H401Z" />
<glyph unicode="+" horiz-adv-x="1190" d="M481 109Q481 209 481 302T481 477V731Q481 813 481 906T481 1100H709Q709 1000 709 907T709 731V477Q709 396 709 303T709 109H481ZM110 493V715Q210 715 303 715T478 715H712Q794 715 887 715T1081 715V493Q981 493
888 493T712 493H478Q397 493 304 493T110 493Z" />
<glyph unicode="," horiz-adv-x="487" d="M38 -314Q76 -257 98 -199T131 -75T142 65Q142 121 142 179T142 297L260 307Q334 299 366 251T399 131Q399 63 379 -2T324 -125T249 -230T164 -311L38 -314Z" />
<glyph unicode="-" horiz-adv-x="850" d="M110 488V710Q196 710 275 710T425 710Q495 710 575 710T740 710V488Q655 488 575 488T425 488Q355 488 276 488T110 488Z" />
<glyph unicode="." horiz-adv-x="510" d="M254 -25Q203 -25 165 -4T107 55T87 140Q87 211 132 256T255 301Q308 301 345 281T403 224T423 140Q423 69 379 22T254 -25Z" />
<glyph unicode="/" horiz-adv-x="902" d="M41 0Q86 111 127 215T224 456L424 952Q481 1093 525 1202T615 1426H862Q831 1349 802 1277T740 1125T669 947L471 456Q416 320 374 216T287 0H41Z" />
<glyph unicode="0" horiz-adv-x="1321" d="M666 -24Q514 -24 406 30T229 181T128 407T95 688Q95 899 156 1060T342 1311T659 1402Q805 1402 912 1350T1089 1203T1193 977T1227 689Q1227 473 1165 313T977 64T666 -24ZM662 197Q769 197 833 261T927 436T957 689Q957
839 926 949T829 1119T662 1180Q558 1180 493 1118T397 945T366 689Q366 545 395 434T489 260T662 197Z" />
<glyph unicode="1" horiz-adv-x="889" d="M111 914L50 1119Q182 1185 313 1250T577 1382L568 1145Q454 1087 340 1030T111 914ZM442 0Q442 108 442 209T442 434V847Q442 951 442 1055T442 1264L577 1382L704 1374Q704 1258 704 1139T704 896V434Q704 310 704 209T704
0H442Z" />
<glyph unicode="2" horiz-adv-x="1128" d="M90 0V179Q147 228 204 276T317 374Q451 488 546 587T693 778T744 962Q744 1070 685 1124T505 1178Q457 1178 407 1168T307 1140T206 1095T107 1036L83 1288Q128 1311 183 1331T299 1368T425 1393T555 1402Q703 1402
805 1353T961 1213T1014 996Q1014 887 968 780T827 564T592 341L386 174L352 226H610Q716 226 822 226T1034 226V0H90Z" />
<glyph unicode="3" horiz-adv-x="1157" d="M557 -25Q488 -25 421 -17T292 6T177 41T80 82L101 323Q155 294 210 271T320 232T428 207T530 198Q675 198 738 253T801 395Q801 496 718 549T483 602Q443 602 405 602T328 602V806Q362 806 397 806T468 806Q571 806
635 831T730 901T760 1003Q760 1091 695 1134T525 1178Q478 1178 428 1169T328 1142T228 1099T130 1043L105 1287Q150 1311 203 1332T317 1368T440 1393T567 1403Q711 1403 815 1360T974 1239T1030 1054Q1030 968 995 904T902 800T773 743V722Q827 712 879 687T975
620T1044 516T1070 374Q1070 260 1015 170T846 28T557 -25Z" />
<glyph unicode="4" horiz-adv-x="1218" d="M687 0Q687 99 687 188T687 395L697 435V842Q697 946 697 1049T697 1258L886 1318Q832 1240 781 1167T676 1020L450 699Q404 634 360 571T269 441L261 520H753L784 524Q841 524 910 524T1046 524T1166 524V298Q1114 298
1047 298T910 298T784 298H52V474Q93 532 142 602T241 743T335 874L505 1114Q551 1179 597 1244T689 1375H948Q948 1251 948 1132T948 893V395Q948 277 948 188T948 0H687Z" />
<glyph unicode="5" horiz-adv-x="1160" d="M551 -25Q483 -25 417 -17T290 6T176 41T80 82L101 323Q155 294 210 271T319 232T426 207T526 198Q669 198 736 263T804 447Q804 533 769 585T673 662T532 687Q466 687 403 672T273 613L159 621V846Q159 988 159 1120T159
1375H999V1149Q881 1149 761 1149T522 1149H323L409 1232Q409 1153 408 1074T405 916V840H426Q479 866 537 879T656 893Q772 893 866 845T1017 699T1073 455Q1073 312 1016 204T842 36T551 -25Z" />
<glyph unicode="6" horiz-adv-x="1227" d="M644 -25Q463 -25 341 54T157 287T95 668Q95 856 135 994T250 1223T431 1357T667 1402Q722 1402 774 1396T875 1377T970 1349T1057 1314L1032 1076Q992 1102 948 1120T860 1151T771 1170T684 1177Q563 1177 490 1120T384
949T351 662Q351 502 384 400T481 248T633 198Q718 198 772 234T853 328T879 455Q879 522 854 576T775 661T638 693Q604 693 569 687T496 666T421 625T345 557Q315 598 306 627T306 686T343 761L376 759Q408 792 446 817T526 860T617 887T718 897Q844 897 939 844T1087
694T1140 467Q1140 340 1087 228T923 45T644 -25Z" />
<glyph unicode="7" horiz-adv-x="1085" d="M193 0Q252 129 311 258T426 514L606 911Q639 984 672 1056T738 1202L789 1148H523Q406 1148 288 1148T50 1148V1374H1015V1198Q962 1080 912 967T808 733L689 467Q638 351 586 235T482 0H193Z" />
<glyph unicode="8" horiz-adv-x="1229" d="M616 -25Q435 -25 318 29T144 176T87 386Q87 497 130 569T238 681T366 735V756Q302 772 249 811T162 910T128 1051Q128 1157 186 1236T354 1359T616 1403Q767 1403 875 1359T1042 1236T1101 1051Q1101 970 1069 910T982
811T863 756V735Q927 721 991 681T1099 568T1142 386Q1142 269 1085 176T912 29T616 -25ZM616 199Q709 199 767 227T854 303T882 413Q882 483 847 531T752 602T614 626Q537 626 477 603T383 531T348 413Q348 352 375 304T462 227T616 199ZM616 824Q726 824 786
876T847 1011Q847 1097 784 1141T616 1186Q510 1186 447 1142T384 1011Q384 956 411 914T490 848T616 824Z" />
<glyph unicode="9" horiz-adv-x="1227" d="M560 -25Q505 -25 453 -19T352 0T257 29T170 63L194 301Q236 277 279 258T367 226T456 207T543 200Q664 200 737 257T843 428T876 716Q876 875 843 978T746 1130T594 1179Q509 1179 455 1143T374 1049T348 922Q348 855
373 802T452 716T588 684Q623 684 658 690T731 711T806 752T882 820Q911 779 920 751T921 692T884 616L851 618Q818 586 781 560T701 517T610 490T509 480Q382 480 287 533T140 683T87 910Q87 1037 140 1149T304 1332T583 1402Q763 1402 885 1324T1070 1091T1132
709Q1132 522 1092 384T976 155T796 20T560 -25Z" />
<glyph unicode=":" horiz-adv-x="510" d="M254 696Q203 696 165 717T107 776T87 861Q87 932 132 977T255 1022Q308 1022 345 1002T403 945T423 861Q423 790 379 743T254 696ZM254 -25Q203 -25 165 -4T107 55T87 140Q87 211 132 256T255 301Q308 301 345 281T403
224T423 140Q423 69 379 22T254 -25Z" />
<glyph unicode=";" horiz-adv-x="510" d="M254 696Q203 696 165 717T107 776T87 861Q87 932 132 977T255 1022Q308 1022 345 1002T403 945T423 861Q423 790 379 743T254 696ZM61 -314Q99 -257 121 -199T154 -75T165 65Q165 121 165 179T165 297L283 307Q357 299
389 251T422 131Q422 63 402 -2T347 -125T272 -230T187 -311L61 -314Z" />
<glyph unicode="&lt;" horiz-adv-x="1150" d="M1041 120Q941 160 847 197T670 267L477 345Q396 378 302 415T110 491V715Q209 754 303 791T478 861L671 939Q753 972 847 1009T1041 1086V851Q945 813 848 775T654 696L449 614V592L654 510Q750 472 848 433T1041 355V120Z" />
<glyph unicode="=" horiz-adv-x="1150" d="M120 258V480Q220 480 313 480T488 480H662Q744 480 837 480T1031 480V258Q931 258 838 258T662 258H488Q407 258 314 258T120 258ZM120 729V950Q220 950 313 950T488 950H662Q744 950 837 950T1031 950V729Q931 729
838 729T662 729H488Q407 729 314 729T120 729Z" />
<glyph unicode="&gt;" horiz-adv-x="1150" d="M110 120V355Q205 394 302 433T497 510L701 592V614L497 696Q400 735 303 774T110 851V1086Q209 1047 303 1010T479 939L673 861Q754 829 848 792T1041 715V491Q942 452 848 415T673 345L479 267Q397 234 303 197T110 120Z" />
<glyph unicode="?" horiz-adv-x="886" d="M445 458Q315 458 252 512T188 656Q188 722 216 770T291 858T388 933Q431 965 470 997T533 1068T558 1154Q558 1218 511 1251T376 1285Q331 1285 283 1276T185 1250T86 1205L74 1423Q103 1435 141 1447T225 1471T323 1490T432
1498Q549 1498 632 1467T760 1371T804 1208Q804 1112 765 1043T668 924T555 835Q498 794 457 756T415 671Q415 621 446 603T519 584Q550 584 578 592T627 609L635 490Q614 482 584 475T519 463T445 458ZM413 -25Q362 -25 325 -4T267 55T246 140Q246 211 291 256T414
301Q467 301 504 281T562 224T582 140Q582 69 538 22T413 -25Z" />
<glyph unicode="@" horiz-adv-x="1777" d="M950 -279Q709 -279 532 -199T247 19T102 335T106 704Q142 879 222 1006T415 1215T663 1338T943 1378Q1134 1378 1285 1310T1536 1121T1674 842T1677 503Q1657 398 1614 325T1516 208T1405 143T1299 122Q1220 122 1164
143T1071 199T1019 274H1002Q955 202 887 171T756 140Q642 140 571 206T474 381T475 614Q496 719 546 801T671 931T839 979Q891 979 935 964T1015 921T1074 856H1092L1120 957L1302 968Q1280 862 1256 747T1207 516L1199 478Q1177 372 1207 328T1295 283Q1333 283
1367 300T1431 351T1482 431T1516 535Q1546 686 1519 812T1414 1031T1216 1175T940 1226Q762 1226 624 1161T394 971T265 671Q229 509 256 365T371 109T603 -64T950 -127Q1027 -127 1118 -113T1309 -62T1516 44V-130Q1434 -182 1341 -215T1149 -263T950 -279ZM815
322Q863 322 908 349T985 433L1045 716Q1018 750 979 771T888 793Q802 793 749 732T675 579Q661 511 671 453T718 358T815 322Z" />
<glyph unicode="A" horiz-adv-x="1418" d="M48 0Q87 115 130 242T211 483L377 972Q422 1105 458 1211T531 1426H893Q930 1314 966 1208T1046 972L1210 482Q1250 364 1292 239T1372 0H1083Q1047 117 1009 241T937 475L720 1185H698L479 483Q443 368 405 243T329
0H48ZM365 318L393 530H1059L1082 318H365Z" />
<glyph unicode="B" horiz-adv-x="1313" d="M637 0Q532 0 442 0T280 0T155 0Q155 116 155 225T155 467V950Q155 1086 155 1197T155 1426Q273 1426 419 1426T714 1426Q853 1426 948 1403T1100 1336T1183 1232T1209 1095Q1209 1004 1175 937T1083 826T952 762V739Q1033
722 1099 683T1203 574T1242 397Q1242 309 1214 237T1117 111T932 29T637 0ZM429 221H661Q764 221 828 244T923 312T953 421Q953 521 883 567T681 613H364V824H671Q757 824 812 850T894 922T920 1024Q920 1115 864 1160T693 1206H429Q429 1132 429 1056T429 886V527Q429
438 429 366T429 221Z" />
<glyph unicode="C" horiz-adv-x="1368" d="M829 -25Q657 -25 519 28T284 180T136 414T84 713Q84 928 171 1095T420 1358T803 1454Q872 1454 939 1445T1068 1420T1182 1385T1275 1343L1253 1081Q1176 1129 1103 1158T963 1201T832 1214Q700 1214 597 1155T434 984T375
713Q375 610 405 519T497 357T649 248T863 208Q911 208 960 214T1058 235T1155 273T1250 331L1267 72Q1225 47 1173 29T1065 -2T948 -19T829 -25Z" />
<glyph unicode="D" horiz-adv-x="1469" d="M155 0Q155 116 155 225T155 467V949Q155 1086 155 1197T155 1426Q241 1426 330 1426T512 1426T700 1426Q864 1426 991 1379T1206 1241T1339 1018T1385 718Q1385 567 1345 437T1217 208T985 55T634 0Q541 0 461 0T307
0T155 0ZM436 226H634Q804 226 905 290T1050 467T1094 722Q1094 830 1068 918T989 1069T851 1166T652 1200H436Q436 1127 436 1053T436 886V532Q436 443 436 370T436 226Z" />
<glyph unicode="E" horiz-adv-x="1191" d="M155 0Q155 116 155 225T155 467V950Q155 1086 155 1197T155 1426H1081V1193Q987 1193 879 1193T623 1193H279L429 1383Q429 1265 429 1154T429 906V511Q429 378 429 269T429 43L297 233H644Q767 233 877 233T1088 233V0H155ZM366
610V831H632Q766 831 862 831T1047 831V610Q953 610 857 610T631 610H366Z" />
<glyph unicode="F" horiz-adv-x="1152" d="M155 0Q155 116 155 225T155 467V949Q155 1086 155 1197T155 1426H1067V1191Q973 1191 865 1191T609 1191H316L430 1383Q430 1265 430 1154T430 906V467Q430 334 430 225T430 0H155ZM360 591V817H617Q750 817 846 817T1032
817V591Q937 591 842 591T616 591H360Z" />
<glyph unicode="G" horiz-adv-x="1461" d="M850 -24Q665 -24 523 31T283 185T135 419T84 714Q84 931 173 1098T427 1359T821 1454Q896 1454 967 1445T1101 1419T1219 1383T1314 1342L1292 1081Q1209 1128 1131 1157T980 1200T842 1214Q741 1214 656 1182T507 1085T408
927T373 713Q373 607 403 515T494 352T650 243T873 203Q933 203 989 208T1098 227T1202 259T1304 307L1337 55Q1303 40 1251 26T1133 1T996 -17T850 -24ZM1074 50Q1074 159 1074 241T1074 407Q1074 504 1074 578T1074 730H1337Q1337 653 1337 579T1337 407Q1337
324 1337 243T1337 55L1074 50Z" />
<glyph unicode="H" horiz-adv-x="1500" d="M1064 0Q1064 116 1064 225T1064 467V949Q1064 1086 1064 1197T1064 1426H1345Q1345 1308 1345 1197T1345 949V467Q1345 334 1345 225T1345 0H1064ZM155 0Q155 116 155 225T155 467V949Q155 1086 155 1197T155 1426H436Q436
1308 436 1197T436 949V467Q436 334 436 225T436 0H155ZM354 602V837H1152V602H354Z" />
<glyph unicode="I" horiz-adv-x="606" d="M160 0Q160 116 160 225T160 467V949Q160 1086 160 1197T160 1426H446Q446 1308 446 1197T446 949V467Q446 334 446 225T446 0H160Z" />
<glyph unicode="J" horiz-adv-x="620" d="M14 -312Q68 -244 104 -174T160 -24T179 150V606V949Q179 1086 179 1197T179 1426H459Q459 1308 459 1197T459 949V637Q459 504 459 378T459 131Q459 49 446 -18T408 -138T351 -234T281 -312H14Z" />
<glyph unicode="K" horiz-adv-x="1379" d="M993 0Q917 98 851 184T720 352L504 629H410V851H501L692 1079Q759 1160 825 1240T979 1426H1305Q1207 1313 1114 1204T925 985L687 708L682 831L947 492Q1008 414 1078 324T1216 149T1333 0H993ZM155 0Q155 116 155
225T155 467V949Q155 1086 155 1197T155 1426H435Q435 1308 435 1197T435 949V467Q435 334 435 225T435 0H155Z" />
<glyph unicode="L" horiz-adv-x="1155" d="M155 0Q155 116 155 225T155 467V949Q155 1086 155 1197T155 1426H436Q436 1308 436 1197T436 949V511Q436 378 436 270T436 44L337 245H610Q717 245 798 245T950 245T1093 245V0H155Z" />
<glyph unicode="M" horiz-adv-x="1923" d="M111 0Q126 113 140 225T170 469L229 945Q246 1075 260 1189T289 1426H572Q625 1294 673 1173T769 931L958 456H977L1161 930Q1209 1051 1255 1170T1353 1426H1633Q1648 1305 1662 1191T1693 944L1753 466Q1770 336 1784
226T1812 0H1546Q1526 163 1508 310T1474 585L1429 953H1410L1267 557Q1215 412 1163 269T1065 0H878Q848 81 812 174T737 365T662 556L508 953H489L445 587Q429 458 411 311T374 0H111Z" />
<glyph unicode="N" horiz-adv-x="1503" d="M155 0Q155 116 155 225T155 467V949Q155 1086 155 1197T155 1426H401Q511 1269 609 1127T806 844L1063 475H1084V949Q1084 1086 1084 1197T1084 1426H1348Q1348 1308 1348 1197T1348 949V467Q1348 334 1348 225T1348
0H1105Q1015 130 916 271T699 582L439 955H418V467Q418 334 418 225T418 0H155Z" />
<glyph unicode="O" horiz-adv-x="1630" d="M822 -25Q633 -25 494 34T264 196T129 432T84 713Q84 920 167 1088T412 1355T814 1454Q996 1454 1133 1397T1362 1238T1500 1002T1546 714Q1546 502 1462 335T1216 72T822 -25ZM817 208Q929 208 1011 248T1147 360T1228
523T1255 714Q1255 821 1226 913T1142 1074T1005 1182T817 1221Q708 1221 625 1181T487 1070T403 908T375 714Q375 612 402 521T484 359T622 248T817 208Z" />
<glyph unicode="P" horiz-adv-x="1284" d="M155 0Q155 116 155 225T155 467V950Q155 1086 155 1197T155 1426Q240 1426 380 1426T704 1426Q874 1426 987 1383T1157 1245T1214 990Q1214 853 1164 748T1002 583T701 523Q653 523 597 523T487 523T395 523V744H640Q740
744 804 769T898 847T929 987Q929 1057 907 1099T849 1164T770 1194T685 1202H296L431 1383Q431 1265 431 1154T431 906V467Q431 334 431 225T431 0H155Z" />
<glyph unicode="Q" horiz-adv-x="1630" d="M1238 -344Q1176 -290 1115 -237T995 -133L840 2L992 156L1202 -10Q1270 -64 1337 -117T1484 -233L1238 -344ZM822 -25Q633 -25 494 34T264 196T129 432T84 713Q84 920 167 1088T412 1355T814 1454Q996 1454 1133 1397T1362
1238T1500 1002T1546 714Q1546 502 1462 335T1216 72T822 -25ZM817 208Q929 208 1011 248T1147 360T1228 523T1255 714Q1255 821 1226 913T1142 1074T1005 1182T817 1221Q708 1221 625 1181T487 1070T403 908T375 714Q375 612 402 521T484 359T622 248T817 208Z"
/>
<glyph unicode="R" horiz-adv-x="1369" d="M155 0Q155 116 155 225T155 467V950Q155 1086 155 1197T155 1426Q217 1426 301 1426T481 1426T680 1426Q850 1426 967 1388T1143 1261T1203 1023Q1203 902 1156 803T1002 646T719 586L822 698L1027 413Q1075 347 1128
272T1233 126T1324 0H1004Q945 86 891 165T784 320L542 673L710 533H379V750H629Q723 750 786 772T882 847T914 990Q914 1060 893 1102T835 1166T757 1195T671 1202H232L429 1383Q429 1259 429 1149T429 906V467Q429 334 429 225T429 0H155Z" />
<glyph unicode="S" horiz-adv-x="1192" d="M595 -25Q506 -25 414 -10T242 29T113 77L134 331Q203 292 277 264T427 221T575 206Q650 206 708 225T798 284T831 386Q831 449 793 490T682 561T508 622Q376 662 283 712T140 841T90 1042Q90 1162 144 1255T308 1401T581
1454Q646 1454 712 1446T839 1423T951 1390T1041 1351L1018 1097Q956 1137 888 1165T753 1207T630 1221Q563 1221 508 1203T419 1147T385 1052Q385 997 415 960T509 894T673 834Q844 782 943 727T1083 594T1125 401Q1125 275 1070 179T897 29T595 -25Z" />
<glyph unicode="T" horiz-adv-x="1288" d="M505 0Q505 116 505 225T505 467V906Q505 1043 505 1154T505 1383L612 1181H429Q314 1181 225 1181T55 1181V1426H1233V1181Q1153 1181 1064 1181T859 1181H676L784 1383Q784 1265 784 1154T784 906V467Q784 334 784
225T784 0H505Z" />
<glyph unicode="U" horiz-adv-x="1458" d="M731 -25Q519 -25 389 44T200 241T140 542Q140 582 140 647T140 791T140 949Q140 1086 140 1197T140 1426H420Q420 1308 420 1197T420 949V560Q420 449 451 370T550 250T730 208Q843 208 910 249T1007 370T1037 561V949Q1037
1086 1037 1197T1037 1426H1317Q1317 1308 1317 1197T1317 949Q1317 870 1317 791T1317 645T1317 541Q1317 369 1255 242T1064 45T731 -25Z" />
<glyph unicode="V" horiz-adv-x="1405" d="M514 0Q479 107 440 228T366 452L220 899Q195 975 166 1065T106 1248T48 1426H358Q400 1285 447 1125T534 824L691 285H713L875 827Q918 970 964 1125T1054 1426H1356Q1328 1340 1298 1248T1239 1068T1184 900L1037 451Q1003
346 965 227T890 0H514Z" />
<glyph unicode="W" horiz-adv-x="2076" d="M435 0Q407 106 374 226T312 450L191 898Q159 1017 120 1158T47 1426H361Q393 1288 428 1136T495 844L612 332H634L752 851Q772 940 795 1039T840 1237T883 1426H1187Q1220 1288 1255 1139T1323 849L1444 332H1466L1585
852Q1616 986 1650 1139T1715 1426H2030Q1995 1299 1957 1159T1885 901L1760 450Q1730 344 1697 224T1635 0H1291Q1259 129 1224 271T1157 540L1035 1027H1013L895 540Q865 414 831 271T765 0H435Z" />
<glyph unicode="X" horiz-adv-x="1399" d="M61 0Q116 99 173 201T293 414L493 769V700L317 994Q256 1095 194 1199T58 1426H377Q427 1338 475 1254T566 1093L678 897H700L808 1095Q850 1172 896 1256T988 1426H1297Q1232 1309 1172 1204T1060 1009L869 674V751L1065
439Q1138 324 1204 219T1341 0H1011Q960 86 915 162T829 308L692 541H669L541 307Q500 233 460 159T372 0H61Z" />
<glyph unicode="Y" horiz-adv-x="1343" d="M540 521L241 1070Q193 1158 149 1239T46 1426H364Q407 1339 437 1276T495 1158T555 1034L662 814H687L792 1027Q827 1098 855 1156T915 1277T990 1426H1299Q1250 1336 1202 1246T1106 1071L808 521H540ZM534 0Q534 116
534 225T534 467V756H815V467Q815 334 815 225T815 0H534Z" />
<glyph unicode="Z" horiz-adv-x="1363" d="M85 0V150Q137 218 202 302T333 473T455 631L956 1281L996 1192H621Q505 1192 375 1192T104 1192V1426H1264V1235Q1178 1125 1096 1020T932 809L409 137L383 234H724Q806 234 905 234T1102 234T1274 234V0H85Z" />
<glyph unicode="[" horiz-adv-x="791" d="M165 -242Q165 -126 165 -17T165 225V1066Q165 1203 165 1314T165 1543H746V1339Q683 1339 611 1339T442 1339H289L398 1500Q398 1382 398 1271T398 1023V269Q398 136 398 28T398 -198L306 -38H456Q537 -38 609 -38T750
-38V-242H165Z" />
<glyph unicode="\" horiz-adv-x="902" d="M615 0Q570 111 528 215T431 456L233 948Q194 1045 162 1124T101 1276T41 1426H287Q334 1311 378 1202T478 952L678 456Q733 320 775 216T862 0H615Z" />
<glyph unicode="]" horiz-adv-x="791" d="M45 -242V-38Q109 -38 180 -38T349 -38H502L393 -199Q393 -80 393 31T393 278V1032Q393 1166 393 1274T393 1499L485 1339H335Q254 1339 182 1339T41 1339V1543H626Q626 1427 626 1319T626 1076V235Q626 99 626 -12T626 -242H45Z" />
<glyph unicode="^" horiz-adv-x="1249" d="M912 732Q844 839 775 945T635 1157H613Q545 1054 476 949T337 739H105Q197 899 288 1057T472 1374H776Q868 1215 960 1055T1144 735L912 732Z" />
<glyph unicode="_" horiz-adv-x="841" d="M-20 -297V-90Q80 -90 173 -90T349 -90H492Q574 -90 667 -90T861 -90V-297Q761 -297 668 -297T492 -297H349Q267 -297 174 -297T-20 -297Z" />
<glyph unicode="`" horiz-adv-x="1200" d="M586 1139Q533 1206 478 1273T368 1410T255 1549L522 1555Q586 1452 650 1349T779 1142L586 1139Z" />
<glyph unicode="a" horiz-adv-x="1055" d="M376 -23Q292 -23 226 12T122 113T83 274Q83 357 112 414T188 508T293 565T410 594L695 636Q698 706 672 744T596 796T483 811Q449 811 410 806T327 789T236 762T140 722L128 943Q165 957 211 971T313 996T427 1014T550
1021Q672 1021 758 986T891 873T937 671Q937 623 937 552T937 422V312Q937 239 937 164T937 0H712L697 130H676Q648 93 606 59T507 1T376 -23ZM468 176Q510 176 551 196T627 252T688 338V495Q675 486 654 479T590 462T472 439Q429 431 400 412T354 363T338 294Q338
229 377 203T468 176Z" />
<glyph unicode="b" horiz-adv-x="1184" d="M694 -25Q626 -25 571 -7T470 45T387 127H368L342 0H139Q139 108 139 209T139 434V987Q139 1110 139 1229T139 1465L393 1489Q393 1370 393 1247T393 987V891H415Q442 930 483 959T576 1005T691 1022Q824 1022 916 954T1055
767T1102 500Q1102 361 1058 241T923 48T694 -25ZM602 194Q685 194 738 237T817 350T842 498Q842 581 816 649T736 759T600 801Q559 801 521 789T450 753T393 695V322Q416 283 446 254T515 210T602 194Z" />
<glyph unicode="c" horiz-adv-x="976" d="M601 -21Q434 -21 318 46T141 231T80 497Q80 647 137 765T305 952T582 1021Q641 1021 699 1012T808 987T900 948L880 726Q823 758 776 775T688 798T616 804Q490 804 415 723T339 504Q339 413 375 343T481 232T657 191Q696
191 735 198T812 219T885 257L900 35Q866 19 822 7T722 -13T601 -21Z" />
<glyph unicode="d" horiz-adv-x="1165" d="M490 -25Q352 -25 261 48T126 241T82 500Q82 648 129 766T268 953T493 1022Q556 1022 608 1006T700 960T769 891H791V987Q791 1110 791 1228T791 1465L1045 1489Q1045 1370 1045 1247T1045 987V434Q1045 310 1045 209T1045
0H828L813 133H794Q756 81 711 46T611 -7T490 -25ZM582 194Q630 194 669 209T738 254T791 322V695Q767 729 735 752T664 788T584 801Q502 801 449 760T369 650T342 498Q342 419 367 350T446 238T582 194Z" />
<glyph unicode="e" horiz-adv-x="1054" d="M622 -25Q434 -25 314 43T137 230T80 502Q80 654 134 771T295 955T555 1021Q688 1021 782 973T928 828T979 585Q979 546 978 515T971 454L750 543Q752 557 753 571T754 599Q754 709 699 771T557 834Q491 834 441 797T362
692T333 537V498Q333 401 367 332T472 225T651 187Q693 187 745 194T852 218T953 259L961 41Q923 22 872 7T758 -16T622 -25ZM180 454V613L821 624L971 567V454H180Z" />
<glyph unicode="f" horiz-adv-x="809" d="M213 0Q213 108 213 209T213 434V534Q213 594 213 663T213 806T213 956T213 1105Q213 1219 244 1294T330 1413T454 1475T602 1493Q645 1493 683 1489T754 1478T807 1463L786 1252Q752 1265 715 1273T640 1281Q548 1281
503 1237T457 1099Q457 1075 457 1044T457 996L467 950V434Q467 310 467 209T467 0H213ZM41 803V996H763V803Q667 803 578 803T397 803H286H41Z" />
<glyph unicode="g" horiz-adv-x="1094" d="M482 -408Q370 -408 294 -389T174 -337T110 -262T91 -177Q91 -110 123 -67T197 1T270 36V54Q254 59 230 76T187 123T168 201Q168 234 180 264T218 319T287 364V382Q259 394 223 417T154 478T98 568T76 692Q76 787 123
861T262 978T489 1021Q542 1021 582 1016T665 1005T772 999H1057V823Q962 823 874 823T695 823L763 935Q835 893 868 828T902 678Q902 578 860 510T744 401T578 339Q488 319 445 303T402 257Q402 235 420 224T477 208T580 203H621Q752 203 841 181T977 105T1024
-43Q1024 -141 976 -210T848 -323T672 -387T482 -408ZM512 -219Q604 -219 664 -196T755 -141T786 -87Q786 -60 767 -40T698 -10T551 1H518Q472 -1 426 -16T348 -57T317 -116Q317 -135 328 -154T362 -187T422 -210T512 -219ZM482 503Q510 507 543 516T605 544T653
590T672 657Q672 712 644 747T574 799T487 816Q442 816 402 799T336 749T310 669Q310 622 334 588T398 533T482 503Z" />
<glyph unicode="h" horiz-adv-x="1153" d="M139 0Q139 108 139 209T139 434V987Q139 1110 139 1229T139 1465L393 1489Q393 1371 393 1247T393 987V848H416Q446 891 490 931T594 996T730 1022Q883 1022 958 933T1034 668Q1034 603 1034 549T1034 434Q1034 313
1034 211T1034 0H780Q780 108 780 209T780 421V590Q780 688 747 738T626 788Q575 788 533 768T456 713T393 635V421Q393 307 393 208T393 0H139Z" />
<glyph unicode="i" horiz-adv-x="543" d="M144 0Q144 108 144 209T144 434V534Q144 630 144 707T144 854T144 996L398 1004Q398 931 398 860T398 711T398 534V434Q398 310 398 209T398 0H144ZM268 1175Q195 1175 151 1211T107 1328Q107 1401 151 1439T270 1478Q345
1478 388 1438T432 1328Q432 1248 389 1212T268 1175Z" />
<glyph unicode="j" horiz-adv-x="540" d="M-8 -392Q46 -328 79 -258T128 -108T144 70V434V534Q144 630 144 707T144 854T144 996L398 1004Q398 931 398 860T398 711T398 534Q398 429 398 345T398 188T398 41Q398 -33 388 -96T359 -212T310 -308T243 -384L-8 -392ZM270
1175Q197 1175 153 1211T109 1328Q109 1401 153 1439T272 1478Q347 1478 390 1438T434 1328Q434 1248 391 1212T270 1175Z" />
<glyph unicode="k" horiz-adv-x="1127" d="M784 0Q733 64 681 127T575 253L443 413H370V585H450L564 730Q617 796 669 863T774 996H1073Q997 907 921 818T770 641L620 466L609 581L790 360Q868 270 945 180T1100 0H784ZM139 0Q139 108 139 209T139 434V987Q139
1110 139 1229T139 1465L393 1489Q393 1371 393 1247T393 987V386Q393 282 393 191T393 0H139Z" />
<glyph unicode="l" horiz-adv-x="533" d="M139 0Q139 108 139 209T139 434V987Q139 1110 139 1229T139 1465L393 1489Q393 1370 393 1247T393 987V434Q393 310 393 209T393 0H139Z" />
<glyph unicode="m" horiz-adv-x="1745" d="M139 0Q139 108 139 209T139 434V534Q139 647 139 763T139 996L355 1009L365 833H388Q421 880 467 923T576 994T717 1022Q835 1022 899 964T984 795L1001 791Q1006 763 1009 733T1012 668Q1012 603 1012 549T1012 434Q1012
313 1012 211T1012 0H758Q758 108 758 209T758 421V590Q758 688 727 738T613 788Q565 788 525 768T453 712T393 635V421Q393 307 393 208T393 0H139ZM1372 0Q1372 108 1372 209T1372 421V590Q1372 688 1341 738T1227 788Q1178 788 1138 768T1065 713T1006 635L969
830H992Q1027 879 1075 923T1187 994T1332 1022Q1482 1022 1554 931T1626 668Q1626 603 1626 549T1626 434Q1626 313 1626 211T1626 0H1372Z" />
<glyph unicode="n" horiz-adv-x="1153" d="M139 0Q139 108 139 209T139 434V534Q139 647 139 763T139 996L355 1009L365 832H388Q421 880 469 923T582 994T730 1022Q883 1022 958 933T1034 668Q1034 603 1034 549T1034 434Q1034 313 1034 211T1034 0H780Q780 108
780 209T780 421V590Q780 688 747 738T626 788Q575 788 533 768T456 713T393 635V421Q393 307 393 208T393 0H139Z" />
<glyph unicode="o" horiz-adv-x="1195" d="M602 -25Q470 -25 372 17T209 134T112 303T80 502Q80 651 140 768T315 954T597 1022Q725 1022 821 983T983 872T1082 707T1115 502Q1115 352 1055 233T879 45T602 -25ZM601 185Q687 185 743 230T828 348T856 502Q856
598 825 667T735 774T600 812Q515 812 457 771T369 659T339 502Q339 420 368 348T455 231T601 185Z" />
<glyph unicode="p" horiz-adv-x="1184" d="M139 -392Q139 -284 139 -179T139 50V534Q139 647 139 763T139 996L366 1009L373 875H395Q425 919 468 952T568 1004T691 1022Q824 1022 916 954T1055 767T1102 500Q1102 361 1058 241T923 48T694 -25Q631 -25 580 -9T486
39T410 114H393V37Q393 -77 393 -176T393 -384L139 -392ZM602 194Q685 194 738 237T817 350T842 498Q842 581 816 649T736 759T600 801Q559 801 521 789T450 753T393 695V322Q416 283 446 254T515 210T602 194Z" />
<glyph unicode="q" horiz-adv-x="1174" d="M791 -392Q791 -284 791 -181T791 37V115H774Q739 71 697 40T604 -8T490 -25Q352 -25 261 48T126 241T82 500Q82 648 129 766T268 953T493 1022Q560 1022 616 1004T715 953T789 875H811L818 996L1045 1009Q1045 888 1045
773T1045 534V50Q1045 -74 1045 -175T1045 -384L791 -392ZM582 194Q630 194 669 209T738 254T791 322V695Q767 729 735 752T664 788T584 801Q502 801 449 760T369 650T342 498Q342 419 367 350T446 238T582 194Z" />
<glyph unicode="r" horiz-adv-x="816" d="M139 0Q139 108 139 209T139 434V534Q139 647 139 763T139 996L355 1009L365 819H387Q427 904 476 947T576 1006T673 1022Q697 1022 725 1018T779 1004L756 755Q720 760 691 762T625 765Q597 765 565 758T502 731T443
671T393 569V421Q393 307 393 208T393 0H139Z" />
<glyph unicode="s" horiz-adv-x="925" d="M448 -25Q379 -25 315 -16T194 9T96 45L113 269Q158 242 211 223T323 193T438 182Q482 182 518 189T575 220T597 288Q597 319 576 339T505 376T371 415Q286 437 225 471T131 562T98 707Q98 857 194 939T453 1021Q522 1021
587 1011T705 984T795 950L777 725Q731 754 677 773T573 803T490 813Q453 813 423 804T376 772T358 715Q358 686 372 665T425 625T542 585Q646 556 715 524T820 440T855 297Q855 201 814 129T683 16T448 -25Z" />
<glyph unicode="t" horiz-adv-x="836" d="M549 -25Q442 -25 367 8T252 115T212 305Q212 378 212 452T212 603T212 762T212 930Q212 1039 212 1131T212 1319L463 1366Q463 1290 463 1223T463 1085T463 930V381Q463 284 500 235T620 185Q654 185 693 197T768 234L785
25Q760 9 723 -2T640 -19T549 -25ZM41 803V996H778V803Q682 803 585 803T397 803H286H41Z" />
<glyph unicode="u" horiz-adv-x="1133" d="M423 -25Q270 -25 195 64T119 329Q119 395 119 444T119 544Q119 640 119 715T119 857T119 996L373 1004Q373 897 373 793T373 574V402Q373 304 406 254T527 204Q576 204 617 224T693 279T755 357V574Q755 688 755 788T755
996H1009Q1009 889 1009 785T1009 544V434Q1009 310 1009 209T1009 0H793L783 165H760Q727 117 679 74T567 3T423 -25Z" />
<glyph unicode="v" horiz-adv-x="1066" d="M395 0Q362 94 328 189T260 377L196 553Q156 663 116 774T36 996L310 1004Q343 892 375 782T441 558L524 275H547L630 559Q664 674 696 782T760 996H1030Q991 886 951 774T870 551L806 373Q773 279 740 187T672 0H395Z" />
<glyph unicode="w" horiz-adv-x="1641" d="M350 0Q321 94 292 188T231 379L175 556Q140 667 106 776T36 996L306 1004Q335 894 366 774T427 542L500 265H520L590 547Q618 660 646 771T703 996H941Q969 888 998 774T1055 549L1127 265H1147L1220 554Q1248 662 1277
779T1332 996H1605Q1570 886 1535 776T1465 556L1410 381Q1379 285 1349 189T1288 0H1000Q973 99 944 204T888 406L820 653H800L734 402Q708 307 681 203T626 0H350Z" />
<glyph unicode="x" horiz-adv-x="1111" d="M46 0Q87 69 118 120T176 216T235 313L374 542L375 483L237 697Q205 748 176 792T116 885T45 996L329 1004Q366 941 395 888T457 777L541 630H560L642 776Q673 834 701 884T763 996H1052Q1008 931 977 884T919 796T857
702L714 487L701 544L860 310Q910 237 957 169T1071 0H767Q733 58 705 106T643 213L550 373H531L448 220Q415 160 388 111T327 0H46Z" />
<glyph unicode="y" horiz-adv-x="1077" d="M240 -392Q281 -291 322 -187T404 17V-34Q368 69 331 173T257 378L193 558Q155 665 115 777T36 996L310 1004Q343 889 374 779T439 553L520 267H543L632 553Q667 665 701 774T770 996H1041Q1010 916 981 841T917 676T833
461L724 181Q650 -9 599 -142T504 -384L240 -392Z" />
<glyph unicode="z" horiz-adv-x="1019" d="M68 0V122Q145 223 219 320T361 506L647 879L679 801H477Q428 801 360 801T217 801T75 801V996H925V852Q889 805 842 745T745 619T649 495L371 133L346 195H567Q616 195 683 195T822 195T955 195V0H68Z" />
<glyph unicode="{" horiz-adv-x="863" d="M631 -242Q519 -242 439 -206T315 -100T272 70Q272 101 272 131T272 192T272 252T272 313T272 374Q272 439 249 479T188 539T104 558H30V742H104Q150 742 188 761T249 821T272 926Q272 957 272 987T272 1048T272 1108T272
1169T272 1231Q272 1381 367 1462T631 1543H818V1339Q771 1339 733 1339T668 1339Q588 1339 547 1300T505 1187V934Q505 856 485 805T425 720T327 661V640Q385 615 424 581T484 495T505 366V114Q505 40 546 1T668 -38Q694 -38 733 -38T823 -38V-242H631Z" />
<glyph unicode="|" horiz-adv-x="553" d="M165 -318Q165 -229 165 -146T165 18T165 179T165 340V904Q165 985 165 1065T165 1225T165 1390T165 1562H387Q387 1474 387 1390T387 1226T387 1065T387 904V340Q387 259 387 179T387 19T387 -145T387 -318H165Z" />
<glyph unicode="}" horiz-adv-x="863" d="M45 -242V-38Q92 -38 130 -38T195 -38Q275 -38 317 1T359 114V367Q359 445 379 496T438 581T536 640V661Q478 686 439 720T379 806T359 935V1187Q359 1261 317 1300T195 1339Q170 1339 131 1339T40 1339V1543H233Q344
1543 424 1507T548 1401T591 1231Q591 1200 591 1170T591 1109T591 1049T591 988T591 927Q591 863 614 822T675 762T759 743H833V559H759Q713 559 675 540T614 481T591 375Q591 344 591 314T591 253T591 193T591 132T591 70Q591 -80 496 -161T233 -242H45Z" />
<glyph unicode="~" horiz-adv-x="1150" d="M803 422Q734 422 675 444T564 495T468 547T382 569Q332 569 301 541T265 457H110Q110 613 178 701T356 790Q425 790 483 768T591 716T686 665T774 642Q823 642 852 670T886 755H1041Q1041 598 975 510T803 422Z" />
<glyph unicode="&#xa0;" horiz-adv-x="382" />
<glyph unicode="&#xa1;" horiz-adv-x="510" d="M110 -396Q122 -161 132 77T150 557L356 560Q363 319 373 83T395 -388L110 -396ZM254 776Q203 776 165 797T107 856T87 940Q87 1012 132 1057T255 1102Q308 1102 345 1082T403 1025T423 940Q423 870 379 823T254 776Z" />
<glyph unicode="&#xa2;" horiz-adv-x="976" d="M479 -274Q479 -185 479 -102T479 62T479 223T479 384V593Q479 674 479 754T479 914T479 1079T479 1251H659Q659 1163 659 1079T659 915T659 754T659 593V384Q659 303 659 223T659 61T659 -103T659 -274H479ZM601
-21Q434 -21 318 46T141 231T80 497Q80 647 137 765T305 952T582 1021Q641 1021 699 1012T808 987T900 948L880 726Q823 758 776 775T688 798T616 804Q490 804 415 723T339 504Q339 413 375 343T481 232T657 191Q696 191 735 198T812 219T885 257L900 35Q866 19
822 7T722 -13T601 -21Z" />
<glyph unicode="&#xa3;" horiz-adv-x="1202" d="M110 0V140Q171 191 203 246T246 359T258 474Q258 578 258 681T258 888Q258 1141 386 1271T765 1402Q825 1402 884 1393T994 1368T1086 1329L1061 1101Q1002 1132 952 1148T861 1169T787 1175Q659 1175 593 1103T527
877V550Q527 482 511 420T451 300T323 183L303 232H578Q702 232 797 232T974 232T1138 232V0H110ZM109 650V829Q209 829 302 829T477 829H551Q634 829 727 829T920 829V650Q820 650 727 650T551 650H477Q396 650 303 650T109 650Z" />
<glyph unicode="&#xa4;" horiz-adv-x="1285" d="M639 206Q542 206 460 235T318 320T225 457T192 642Q192 771 249 868T409 1020T643 1075Q741 1075 823 1043T965 954T1058 817T1091 642Q1091 502 1033 405T873 257T639 206ZM231 69L71 229Q142 300 207 366T331
490L491 329Q434 272 368 206T231 69ZM640 416Q736 416 800 472T864 641Q864 710 835 760T756 838T642 866Q579 866 529 839T449 762T419 641Q419 565 448 515T528 441T640 416ZM333 794Q275 852 210 918T73 1055L229 1211Q300 1141 366 1075T489 950L333 794ZM1056
71Q986 142 920 208T796 331L952 488Q1010 430 1076 364T1212 227L1056 71ZM954 792L794 953Q852 1011 918 1077T1054 1213L1214 1053Q1144 983 1078 917T954 792Z" />
<glyph unicode="&#xa5;" horiz-adv-x="1283" d="M515 507L231 1033Q204 1083 180 1128T124 1231T46 1374H350Q390 1290 419 1231T473 1118T530 1000L631 787H655L760 1002Q791 1066 817 1120T873 1233T942 1374H1237Q1193 1291 1146 1204T1054 1034L771 507H515ZM510
0Q510 112 510 216T510 448V725H777V448Q777 321 777 217T777 0H510ZM148 254V413Q248 413 341 413T516 413H771Q853 413 946 413T1139 413V254Q1039 254 946 254T771 254H516Q435 254 342 254T148 254ZM148 564V723Q248 723 341 723T516 723H771Q853 723 946 723T1139
723V564Q1039 564 946 564T771 564H516Q435 564 342 564T148 564Z" />
<glyph unicode="&#xa6;" horiz-adv-x="553" d="M165 722V904Q165 985 165 1065T165 1225T165 1390T165 1562H387Q387 1474 387 1390T387 1226T387 1065T387 904V722H165ZM165 -318Q165 -229 165 -146T165 18T165 179T165 340V522H387V340Q387 259 387 179T387
19T387 -145T387 -318H165Z" />
<glyph unicode="&#xa7;" horiz-adv-x="1137" d="M495 -257Q412 -257 334 -246T189 -214T73 -168L90 53Q145 19 209 -5T339 -42T470 -56Q533 -56 583 -42T664 6T694 99Q694 146 667 175T577 229T406 287Q299 319 226 363T116 470T78 620Q78 697 111 764T207 882T363
956L486 806Q449 799 416 776T361 718T339 636Q339 587 362 553T437 493T574 443Q700 407 783 365T909 260T952 94Q952 -8 905 -87T756 -212T495 -257ZM804 251L670 385Q735 402 775 450T815 562Q815 615 789 649T699 711T528 768Q428 796 354 839T239 948T198
1109Q198 1266 306 1360T605 1454Q685 1454 759 1442T894 1410T1002 1367L985 1147Q925 1186 866 1209T753 1241T659 1251Q628 1251 593 1245T528 1222T480 1176T461 1102Q461 1062 484 1032T559 976T696 926Q821 890 905 847T1031 743T1074 591Q1074 477 1009
388T804 251Z" />
<glyph unicode="&#xa8;" horiz-adv-x="1200" d="M819 1165Q754 1165 717 1201T679 1311Q679 1377 717 1415T821 1454Q887 1454 924 1414T962 1311Q962 1238 925 1202T819 1165ZM375 1165Q310 1165 272 1201T234 1311Q234 1377 272 1415T377 1454Q443 1454 480
1414T518 1311Q518 1238 480 1202T375 1165Z" />
<glyph unicode="&#xa9;" horiz-adv-x="1616" d="M815 -25Q628 -25 491 32T263 188T129 416T84 688Q84 888 166 1050T410 1307T807 1402Q1045 1402 1206 1306T1450 1049T1532 689Q1532 484 1448 323T1203 68T815 -25ZM836 311Q715 311 631 360T502 494T458 687Q458
795 499 881T622 1016T822 1066Q864 1066 906 1060T986 1041T1053 1013L1038 845Q977 882 929 892T846 903Q760 903 706 848T652 692Q652 591 710 531T875 470Q919 470 960 482T1041 519L1053 352Q1028 340 996 331T924 317T836 311ZM814 121Q992 121 1118 192T1311
391T1378 689Q1378 856 1313 984T1120 1184T808 1256Q625 1256 498 1184T304 983T238 688Q238 524 302 396T495 195T814 121Z" />
<glyph unicode="&#xaa;" horiz-adv-x="803" d="M286 661Q181 661 126 721T71 869Q71 935 93 981T151 1056T228 1102T307 1126L536 1171Q539 1217 520 1244T464 1282T375 1293Q342 1293 301 1286T213 1264T116 1222L105 1396Q134 1407 170 1417T248 1435T334 1449T425
1454Q556 1454 632 1392T709 1187Q709 1154 709 1098T709 999V927Q709 872 709 810T709 677H549L538 795H523Q501 758 466 728T385 679T286 661ZM365 814Q395 814 426 825T484 860T531 922V1076Q521 1069 506 1062T462 1047T382 1027Q349 1020 320 1007T271 971T252
912Q252 860 285 837T365 814Z" />
<glyph unicode="&#xab;" horiz-adv-x="1239" d="M918 -4Q829 124 740 251T560 506Q650 634 739 761T918 1016L1169 1001Q1083 880 998 758T827 514V492Q913 372 998 251T1169 9L918 -4ZM408 -4Q319 124 230 251T50 506Q140 634 229 761T408 1016L659 1001Q573
880 488 758T317 514V492Q403 372 488 251T659 9L408 -4Z" />
<glyph unicode="&#xac;" horiz-adv-x="1150" d="M813 299Q813 399 813 492T813 667V840L1000 683Q912 683 829 683T672 683H478Q397 683 304 683T110 683V905Q210 905 303 905T478 905H672Q754 905 847 905T1041 905V667Q1041 585 1041 492T1041 299H813Z" />
<glyph unicode="&#xad;" horiz-adv-x="850" d="M110 488V710Q196 710 275 710T425 710Q495 710 575 710T740 710V488Q655 488 575 488T425 488Q355 488 276 488T110 488Z" />
<glyph unicode="&#xae;" horiz-adv-x="1150" d="M580 491Q402 491 288 561T120 745T65 992Q65 1132 121 1245T291 1426T573 1493Q744 1493 858 1426T1028 1245T1085 993Q1085 849 1027 736T855 557T580 491ZM367 722Q367 770 367 814T367 910V1102Q367 1155 367
1199T367 1292L484 1274Q484 1228 484 1186T484 1094V910Q484 858 484 814T484 722H367ZM579 580Q713 580 804 633T942 779T988 993Q988 1110 944 1203T807 1350T574 1405Q434 1405 343 1351T206 1204T161 992Q161 907 185 832T261 701T391 612T579 580ZM703 722Q678
760 655 794T610 861L523 991L594 947H460V1026H554Q606 1026 638 1046T670 1119Q670 1157 653 1173T614 1193T573 1197H446L367 1292Q403 1292 456 1292T578 1292Q680 1292 735 1255T791 1131Q791 1060 748 1010T597 959L644 1002L724 888Q754 845 785 800T839
722H703Z" />
<glyph unicode="&#xaf;" horiz-adv-x="1200" d="M268 1212V1401Q343 1401 426 1401T600 1401Q691 1401 774 1401T932 1401V1212Q857 1212 774 1212T600 1212Q509 1212 426 1212T268 1212Z" />
<glyph unicode="&#xb0;" horiz-adv-x="998" d="M498 609Q372 609 276 657T125 794T70 1006Q70 1118 124 1208T276 1350T500 1402Q627 1402 723 1350T874 1208T928 1006Q928 883 874 794T723 657T498 609ZM498 790Q600 790 657 847T714 1004Q714 1065 689 1114T615
1192T500 1221Q400 1221 342 1159T283 1004Q283 938 309 890T384 816T498 790Z" />
<glyph unicode="&#xb1;" horiz-adv-x="1150" d="M110 0V222Q210 222 303 222T478 222H672Q754 222 847 222T1041 222V0Q941 0 848 0T672 0H478Q397 0 304 0T110 0ZM110 727V949Q210 949 303 949T478 949H672Q754 949 847 949T1041 949V727Q941 727 848 727T672
727H478Q397 727 304 727T110 727ZM461 363Q461 463 461 556T461 731V945Q461 1027 461 1120T461 1313H689Q689 1214 689 1121T689 945V731Q689 650 689 557T689 363H461Z" />
<glyph unicode="&#xb2;" horiz-adv-x="825" d="M66 602V736Q106 768 146 800T227 864Q322 937 388 999T489 1119T524 1237Q524 1304 484 1338T359 1372Q315 1372 268 1360T173 1326T79 1275L61 1470Q94 1485 134 1499T218 1523T309 1540T403 1546Q510 1546 585
1513T698 1417T737 1268Q737 1196 705 1127T606 987T438 843L292 736L265 778H409Q495 778 580 778T750 778V602H66Z" />
<glyph unicode="&#xb3;" horiz-adv-x="847" d="M407 581Q358 581 310 586T216 601T132 624T62 652L78 833Q117 814 156 799T233 772T309 756T383 750Q483 750 525 785T567 878Q567 942 511 976T350 1010Q323 1010 295 1010T239 1010V1139Q264 1139 288 1139T339
1139Q442 1139 490 1174T539 1267Q539 1323 496 1350T378 1377Q332 1377 285 1366T191 1334T98 1286L81 1471Q113 1486 151 1499T232 1523T321 1540T414 1546Q519 1546 594 1517T710 1434T751 1308Q751 1224 698 1172T570 1104V1089Q620 1080 668 1053T748 976T780
854Q780 735 689 658T407 581Z" />
<glyph unicode="&#xb4;" horiz-adv-x="1200" d="M421 1139Q486 1242 550 1344T677 1549L945 1555Q888 1484 832 1415T722 1277T614 1142L421 1139Z" />
<glyph unicode="&#xb5;" horiz-adv-x="1158" d="M139 -392Q139 -284 139 -179T139 50V544Q139 640 139 715T139 857T139 996L393 1004Q393 932 393 862T393 721T393 574V402Q393 304 426 254T547 204Q596 204 637 224T712 279T775 357V574Q775 688 775 788T775
996H1029Q1029 924 1029 855T1029 711T1029 544V348Q1029 271 1029 185T1029 0H814Q811 41 807 83T799 166H776Q748 118 707 75T609 3T484 -25Q416 -25 367 -2T286 73H393V37Q393 -77 393 -176T393 -384L139 -392Z" />
<glyph unicode="&#xb6;" horiz-adv-x="1137" d="M438 576Q312 576 227 636T98 795T55 1008Q55 1129 101 1223T234 1372T438 1426H479V576H438ZM446 -351Q446 -174 446 -15T446 307V768Q446 930 446 1089T446 1426H607Q607 1249 607 1090T607 768V307Q607 145 607
-14T607 -351H446ZM767 -351Q767 -174 767 -15T767 307V768Q767 930 767 1089T767 1426H928Q928 1249 928 1090T928 768V307Q928 145 928 -14T928 -351H767ZM525 1275V1426H719Q800 1426 893 1426T1087 1426V1275Q987 1275 894 1275T719 1275H525Z" />
<glyph unicode="&#xb7;" horiz-adv-x="510" d="M254 460Q203 460 165 481T107 540T87 625Q87 696 132 741T255 786Q308 786 345 766T403 709T423 625Q423 554 379 507T254 460Z" />
<glyph unicode="&#xb8;" horiz-adv-x="1200" d="M546 -438Q521 -438 497 -436T451 -430T414 -421V-275Q427 -280 452 -284T509 -288Q569 -288 595 -269T621 -217Q621 -198 609 -181T565 -150T474 -127L548 48H684V0L639 -104Q708 -116 748 -139T804 -195T821 -266Q821
-314 795 -353T708 -415T546 -438Z" />
<glyph unicode="&#xb9;" horiz-adv-x="661" d="M84 1191L38 1350Q136 1396 231 1440T421 1528L414 1345Q340 1311 258 1273T84 1191ZM314 602Q314 675 314 742T314 894V1160Q314 1231 314 1300T314 1439L421 1528L518 1523Q518 1443 518 1362T518 1199V894Q518
810 518 743T518 602H314Z" />
<glyph unicode="&#xba;" horiz-adv-x="916" d="M461 659Q328 659 240 715T109 862T65 1060Q65 1172 110 1261T243 1402T457 1454Q586 1454 674 1402T806 1261T851 1060Q851 946 805 856T672 712T461 659ZM460 819Q526 819 569 853T634 943T655 1060Q655 1168 602
1231T460 1294Q395 1294 351 1263T283 1179T260 1060Q260 998 282 943T349 853T460 819Z" />
<glyph unicode="&#xbb;" horiz-adv-x="1239" d="M831 -4L580 11Q666 133 751 255T923 498V520Q837 641 752 762T580 1003L831 1016Q921 889 1010 762T1190 506Q1100 379 1011 252T831 -4ZM321 -4L70 11Q156 133 241 255T412 498V520Q327 641 242 762T70 1003L321
1016Q411 889 500 762T679 506Q590 379 501 252T321 -4Z" />
<glyph unicode="&#xbc;" horiz-adv-x="1964" d="M84 1094L38 1253Q136 1299 231 1343T421 1431L414 1248Q340 1214 258 1176T84 1094ZM314 505Q314 578 314 645T314 797V1063Q314 1134 314 1203T314 1342L421 1431L518 1426Q518 1346 518 1265T518 1102V797Q518
713 518 646T518 505H314ZM461 0Q520 110 576 216T704 459L968 954Q1018 1048 1059 1126T1140 1277T1219 1426H1467Q1427 1350 1389 1278T1308 1127T1216 954L952 459Q880 323 824 217T708 0H461ZM1567 0Q1567 67 1567 124T1567 263L1588 291V557Q1588 626 1588
695T1588 834L1723 905Q1685 855 1648 807T1573 708L1411 495Q1378 451 1346 409T1282 324L1276 345H1622L1644 365Q1707 365 1786 365T1921 365V189Q1865 189 1786 189T1644 189H1118V323Q1144 357 1179 403T1252 499T1321 589L1440 748Q1473 791 1506 835T1573
921H1771Q1771 837 1771 756T1771 595V263Q1771 182 1771 125T1771 0H1567Z" />
<glyph unicode="&#xbd;" horiz-adv-x="2092" d="M84 1094L38 1253Q136 1299 231 1343T421 1431L414 1248Q340 1214 258 1176T84 1094ZM314 505Q314 578 314 645T314 797V1063Q314 1134 314 1203T314 1342L421 1431L518 1426Q518 1346 518 1265T518 1102V797Q518
713 518 646T518 505H314ZM461 0Q520 110 576 216T704 459L968 954Q1018 1048 1059 1126T1140 1277T1219 1426H1467Q1427 1350 1389 1278T1308 1127T1216 954L952 459Q880 323 824 217T708 0H461ZM1332 0V134Q1372 166 1412 198T1493 262Q1588 335 1654 397T1755
517T1790 635Q1790 702 1750 736T1625 770Q1581 770 1534 758T1439 724T1345 673L1327 868Q1360 883 1400 897T1484 921T1575 938T1669 944Q1776 944 1851 911T1964 815T2003 666Q2003 594 1971 525T1872 385T1704 241L1558 134L1531 176H1675Q1761 176 1846 176T2016
176V0H1332Z" />
<glyph unicode="&#xbe;" horiz-adv-x="2081" d="M407 484Q358 484 310 489T216 504T132 527T62 555L78 736Q117 717 156 702T233 675T309 659T383 653Q483 653 525 688T567 781Q567 845 511 879T350 913Q323 913 295 913T239 913V1042Q264 1042 288 1042T339 1042Q442
1042 490 1077T539 1170Q539 1226 496 1253T378 1280Q332 1280 285 1269T191 1237T98 1189L81 1374Q113 1389 151 1402T232 1426T321 1443T414 1449Q519 1449 594 1420T710 1337T751 1211Q751 1127 698 1075T570 1007V992Q620 983 668 956T748 879T780 757Q780
638 689 561T407 484ZM578 0Q637 110 693 216T821 459L1085 954Q1135 1048 1176 1126T1257 1277T1336 1426H1584Q1544 1350 1506 1278T1425 1127T1333 954L1069 459Q997 323 941 217T825 0H578ZM1684 0Q1684 67 1684 124T1684 263L1705 291V557Q1705 626 1705 695T1705
834L1840 905Q1802 855 1765 807T1690 708L1528 495Q1495 451 1463 409T1399 324L1393 345H1739L1761 365Q1824 365 1903 365T2038 365V189Q1982 189 1903 189T1761 189H1235V323Q1261 357 1296 403T1369 499T1438 589L1557 748Q1590 791 1623 835T1690 921H1888Q1888
837 1888 756T1888 595V263Q1888 182 1888 125T1888 0H1684Z" />
<glyph unicode="&#xbf;" horiz-adv-x="826" d="M454 -421Q337 -421 254 -390T126 -294T82 -131Q82 -35 121 34T218 153T330 242Q387 284 429 322T471 407Q471 456 440 474T367 493Q336 493 308 486T259 468L251 588Q271 595 301 602T367 614T440 619Q571 619 634
565T698 421Q698 355 669 307T595 219T498 144Q454 112 416 80T352 9T327 -77Q327 -140 375 -174T510 -208Q554 -208 602 -199T700 -173T800 -128L812 -346Q783 -357 745 -370T660 -394T563 -413T454 -421ZM471 776Q419 776 382 797T324 856T303 940Q303 1012 348
1057T472 1102Q525 1102 562 1082T619 1025T640 940Q640 870 596 823T471 776Z" />
<glyph unicode="&#xc0;" horiz-adv-x="1418" d="M48 0Q87 115 130 242T211 483L377 972Q422 1105 458 1211T531 1426H893Q930 1314 966 1208T1046 972L1210 482Q1250 364 1292 239T1372 0H1083Q1047 117 1009 241T937 475L720 1185H698L479 483Q443 368 405 243T329
0H48ZM365 318L393 530H1059L1082 318H365ZM695 1559Q642 1620 587 1681T477 1804T364 1932L631 1937Q695 1843 759 1750T888 1562L695 1559Z" />
<glyph unicode="&#xc1;" horiz-adv-x="1418" d="M48 0Q87 115 130 242T211 483L377 972Q422 1105 458 1211T531 1426H893Q930 1314 966 1208T1046 972L1210 482Q1250 364 1292 239T1372 0H1083Q1047 117 1009 241T937 475L720 1185H698L479 483Q443 368 405 243T329
0H48ZM365 318L393 530H1059L1082 318H365ZM530 1559Q595 1653 659 1746T786 1932L1054 1937Q997 1872 942 1809T831 1684T723 1562L530 1559Z" />
<glyph unicode="&#xc2;" horiz-adv-x="1418" d="M48 0Q87 115 130 242T211 483L377 972Q422 1105 458 1211T531 1426H893Q930 1314 966 1208T1046 972L1210 482Q1250 364 1292 239T1372 0H1083Q1047 117 1009 241T937 475L720 1185H698L479 483Q443 368 405 243T329
0H48ZM365 318L393 530H1059L1082 318H365ZM905 1557Q848 1626 791 1694T674 1834H740Q682 1764 626 1697T512 1561H319Q383 1653 447 1746T575 1934H840Q904 1839 968 1746T1096 1560L905 1557Z" />
<glyph unicode="&#xc3;" horiz-adv-x="1418" d="M48 0Q87 115 130 242T211 483L377 972Q422 1105 458 1211T531 1426H893Q930 1314 966 1208T1046 972L1210 482Q1250 364 1292 239T1372 0H1083Q1047 117 1009 241T937 475L720 1185H698L479 483Q443 368 405 243T329
0H48ZM365 318L393 530H1059L1082 318H365ZM883 1547Q822 1547 776 1571T695 1627T629 1683T567 1707Q517 1707 496 1671T469 1581H331Q331 1731 388 1811T543 1891Q603 1891 648 1867T727 1810T793 1754T856 1730Q905 1730 925 1766T949 1856H1087Q1087 1707 1032
1627T883 1547Z" />
<glyph unicode="&#xc4;" horiz-adv-x="1418" d="M48 0Q87 115 130 242T211 483L377 972Q422 1105 458 1211T531 1426H893Q930 1314 966 1208T1046 972L1210 482Q1250 364 1292 239T1372 0H1083Q1047 117 1009 241T937 475L720 1185H698L479 483Q443 368 405 243T329
0H48ZM365 318L393 530H1059L1082 318H365ZM930 1585Q865 1585 828 1621T790 1731Q790 1797 828 1835T932 1874Q998 1874 1035 1834T1073 1731Q1073 1658 1036 1622T930 1585ZM486 1585Q421 1585 383 1621T345 1731Q345 1797 383 1835T488 1874Q554 1874 591 1834T629
1731Q629 1658 591 1622T486 1585Z" />
<glyph unicode="&#xc5;" horiz-adv-x="1418" d="M48 0Q87 115 130 242T211 483L377 972Q422 1105 458 1211T531 1426H893Q930 1314 966 1208T1046 972L1210 482Q1250 364 1292 239T1372 0H1083Q1047 117 1009 241T937 475L720 1185H698L479 483Q443 368 405 243T329
0H48ZM365 318L393 530H1059L1082 318H365ZM707 1540Q631 1540 575 1566T486 1643T453 1769Q453 1872 523 1933T709 1995Q785 1995 842 1966T931 1886T963 1769Q963 1693 931 1643T841 1566T707 1540ZM707 1653Q762 1653 795 1682T829 1768Q829 1817 796 1849T709
1882Q655 1882 621 1850T587 1768Q587 1712 620 1683T707 1653Z" />
<glyph unicode="&#xc6;" horiz-adv-x="1975" d="M26 0Q84 115 147 241T268 483L514 974Q579 1103 632 1210T740 1426H1865V1193Q1802 1193 1733 1193T1584 1193T1406 1193H1118L1212 1383Q1212 1265 1212 1154T1212 906V511Q1212 378 1212 269T1212 43L1126 233H1427Q1509
233 1585 233T1732 233T1872 233V0H939Q939 116 939 225T939 467V950Q939 1086 939 1195T939 1405L1076 1201H893L546 484Q490 367 430 243T312 0H26ZM405 318L434 530H1035L1059 318H405ZM1150 610V831H1415Q1549 831 1645 831T1830 831V610Q1784 610 1737 610T1641
610T1536 610T1415 610H1150Z" />
<glyph unicode="&#xc7;" horiz-adv-x="1368" d="M829 -25Q657 -25 519 28T284 180T136 414T84 713Q84 928 171 1095T420 1358T803 1454Q872 1454 939 1445T1068 1420T1182 1385T1275 1343L1253 1081Q1176 1129 1103 1158T963 1201T832 1214Q700 1214 597 1155T434
984T375 713Q375 610 405 519T497 357T649 248T863 208Q911 208 960 214T1058 235T1155 273T1250 331L1267 72Q1225 47 1173 29T1065 -2T948 -19T829 -25ZM741 -438Q716 -438 692 -436T646 -430T609 -421V-275Q622 -280 647 -284T704 -288Q764 -288 790 -269T816
-217Q816 -198 804 -181T760 -150T669 -127L743 48H879V0L834 -104Q903 -116 943 -139T999 -195T1016 -266Q1016 -314 990 -353T903 -415T741 -438Z" />
<glyph unicode="&#xc8;" horiz-adv-x="1191" d="M155 0Q155 116 155 225T155 467V950Q155 1086 155 1197T155 1426H1081V1193Q987 1193 879 1193T623 1193H279L429 1383Q429 1265 429 1154T429 906V511Q429 378 429 269T429 43L297 233H644Q767 233 877 233T1088
233V0H155ZM366 610V831H632Q766 831 862 831T1047 831V610Q953 610 857 610T631 610H366ZM609 1559Q556 1620 501 1681T391 1804T278 1932L545 1937Q609 1843 673 1750T802 1562L609 1559Z" />
<glyph unicode="&#xc9;" horiz-adv-x="1191" d="M155 0Q155 116 155 225T155 467V950Q155 1086 155 1197T155 1426H1081V1193Q987 1193 879 1193T623 1193H279L429 1383Q429 1265 429 1154T429 906V511Q429 378 429 269T429 43L297 233H644Q767 233 877 233T1088
233V0H155ZM366 610V831H632Q766 831 862 831T1047 831V610Q953 610 857 610T631 610H366ZM444 1559Q509 1653 573 1746T700 1932L968 1937Q911 1872 856 1809T745 1684T637 1562L444 1559Z" />
<glyph unicode="&#xca;" horiz-adv-x="1191" d="M155 0Q155 116 155 225T155 467V950Q155 1086 155 1197T155 1426H1081V1193Q987 1193 879 1193T623 1193H279L429 1383Q429 1265 429 1154T429 906V511Q429 378 429 269T429 43L297 233H644Q767 233 877 233T1088
233V0H155ZM366 610V831H632Q766 831 862 831T1047 831V610Q953 610 857 610T631 610H366ZM819 1557Q762 1626 705 1694T588 1834H654Q596 1764 540 1697T426 1561H233Q297 1653 361 1746T489 1934H754Q818 1839 882 1746T1010 1560L819 1557Z" />
<glyph unicode="&#xcb;" horiz-adv-x="1191" d="M155 0Q155 116 155 225T155 467V950Q155 1086 155 1197T155 1426H1081V1193Q987 1193 879 1193T623 1193H279L429 1383Q429 1265 429 1154T429 906V511Q429 378 429 269T429 43L297 233H644Q767 233 877 233T1088
233V0H155ZM366 610V831H632Q766 831 862 831T1047 831V610Q953 610 857 610T631 610H366ZM844 1585Q779 1585 742 1621T704 1731Q704 1797 742 1835T846 1874Q912 1874 949 1834T987 1731Q987 1658 950 1622T844 1585ZM400 1585Q335 1585 297 1621T259 1731Q259
1797 297 1835T402 1874Q468 1874 505 1834T543 1731Q543 1658 505 1622T400 1585Z" />
<glyph unicode="&#xcc;" horiz-adv-x="606" d="M160 0Q160 116 160 225T160 467V949Q160 1086 160 1197T160 1426H446Q446 1308 446 1197T446 949V467Q446 334 446 225T446 0H160ZM284 1559Q231 1620 176 1681T66 1804T-47 1932L220 1937Q284 1843 348 1750T477
1562L284 1559Z" />
<glyph unicode="&#xcd;" horiz-adv-x="606" d="M160 0Q160 116 160 225T160 467V949Q160 1086 160 1197T160 1426H446Q446 1308 446 1197T446 949V467Q446 334 446 225T446 0H160ZM119 1559Q184 1653 248 1746T375 1932L643 1937Q586 1872 531 1809T420 1684T312
1562L119 1559Z" />
<glyph unicode="&#xce;" horiz-adv-x="606" d="M160 0Q160 116 160 225T160 467V949Q160 1086 160 1197T160 1426H446Q446 1308 446 1197T446 949V467Q446 334 446 225T446 0H160ZM494 1557Q437 1626 380 1694T263 1834H329Q271 1764 215 1697T101 1561H-92Q-28
1653 36 1746T164 1934H429Q493 1839 557 1746T685 1560L494 1557Z" />
<glyph unicode="&#xcf;" horiz-adv-x="606" d="M160 0Q160 116 160 225T160 467V949Q160 1086 160 1197T160 1426H446Q446 1308 446 1197T446 949V467Q446 334 446 225T446 0H160ZM519 1585Q454 1585 417 1621T379 1731Q379 1797 417 1835T521 1874Q587 1874 624
1834T662 1731Q662 1658 625 1622T519 1585ZM75 1585Q10 1585 -28 1621T-66 1731Q-66 1797 -28 1835T77 1874Q143 1874 180 1834T218 1731Q218 1658 180 1622T75 1585Z" />
<glyph unicode="&#xd0;" horiz-adv-x="1469" d="M-26 606V799Q67 799 154 799T317 799H411Q488 799 575 799T754 799V606Q662 606 575 606T411 606H317Q241 606 154 606T-26 606ZM155 0Q155 116 155 225T155 467V949Q155 1086 155 1197T155 1426Q241 1426 330
1426T512 1426T700 1426Q864 1426 991 1379T1206 1241T1339 1018T1385 718Q1385 567 1345 437T1217 208T985 55T634 0Q541 0 461 0T307 0T155 0ZM436 226H634Q804 226 905 290T1050 467T1094 722Q1094 830 1068 918T989 1069T851 1166T652 1200H436Q436 1127 436
1053T436 886V532Q436 443 436 370T436 226Z" />
<glyph unicode="&#xd1;" horiz-adv-x="1503" d="M155 0Q155 116 155 225T155 467V949Q155 1086 155 1197T155 1426H401Q511 1269 609 1127T806 844L1063 475H1084V949Q1084 1086 1084 1197T1084 1426H1348Q1348 1308 1348 1197T1348 949V467Q1348 334 1348 225T1348
0H1105Q1015 130 916 271T699 582L439 955H418V467Q418 334 418 225T418 0H155ZM927 1547Q866 1547 820 1571T739 1627T673 1683T611 1707Q561 1707 540 1671T513 1581H375Q375 1731 432 1811T587 1891Q647 1891 692 1867T771 1810T837 1754T900 1730Q949 1730
969 1766T993 1856H1131Q1131 1707 1076 1627T927 1547Z" />
<glyph unicode="&#xd2;" horiz-adv-x="1630" d="M822 -25Q633 -25 494 34T264 196T129 432T84 713Q84 920 167 1088T412 1355T814 1454Q996 1454 1133 1397T1362 1238T1500 1002T1546 714Q1546 502 1462 335T1216 72T822 -25ZM817 208Q929 208 1011 248T1147 360T1228
523T1255 714Q1255 821 1226 913T1142 1074T1005 1182T817 1221Q708 1221 625 1181T487 1070T403 908T375 714Q375 612 402 521T484 359T622 248T817 208ZM801 1559Q748 1620 693 1681T583 1804T470 1932L737 1937Q801 1843 865 1750T994 1562L801 1559Z" />
<glyph unicode="&#xd3;" horiz-adv-x="1630" d="M822 -25Q633 -25 494 34T264 196T129 432T84 713Q84 920 167 1088T412 1355T814 1454Q996 1454 1133 1397T1362 1238T1500 1002T1546 714Q1546 502 1462 335T1216 72T822 -25ZM817 208Q929 208 1011 248T1147 360T1228
523T1255 714Q1255 821 1226 913T1142 1074T1005 1182T817 1221Q708 1221 625 1181T487 1070T403 908T375 714Q375 612 402 521T484 359T622 248T817 208ZM636 1559Q701 1653 765 1746T892 1932L1160 1937Q1103 1872 1048 1809T937 1684T829 1562L636 1559Z" />
<glyph unicode="&#xd4;" horiz-adv-x="1630" d="M822 -25Q633 -25 494 34T264 196T129 432T84 713Q84 920 167 1088T412 1355T814 1454Q996 1454 1133 1397T1362 1238T1500 1002T1546 714Q1546 502 1462 335T1216 72T822 -25ZM817 208Q929 208 1011 248T1147 360T1228
523T1255 714Q1255 821 1226 913T1142 1074T1005 1182T817 1221Q708 1221 625 1181T487 1070T403 908T375 714Q375 612 402 521T484 359T622 248T817 208ZM1011 1557Q954 1626 897 1694T780 1834H846Q788 1764 732 1697T618 1561H425Q489 1653 553 1746T681 1934H946Q1010
1839 1074 1746T1202 1560L1011 1557Z" />
<glyph unicode="&#xd5;" horiz-adv-x="1630" d="M822 -25Q633 -25 494 34T264 196T129 432T84 713Q84 920 167 1088T412 1355T814 1454Q996 1454 1133 1397T1362 1238T1500 1002T1546 714Q1546 502 1462 335T1216 72T822 -25ZM817 208Q929 208 1011 248T1147 360T1228
523T1255 714Q1255 821 1226 913T1142 1074T1005 1182T817 1221Q708 1221 625 1181T487 1070T403 908T375 714Q375 612 402 521T484 359T622 248T817 208ZM989 1547Q928 1547 882 1571T801 1627T735 1683T673 1707Q623 1707 602 1671T575 1581H437Q437 1731 494
1811T649 1891Q709 1891 754 1867T833 1810T899 1754T962 1730Q1011 1730 1031 1766T1055 1856H1193Q1193 1707 1138 1627T989 1547Z" />
<glyph unicode="&#xd6;" horiz-adv-x="1630" d="M822 -25Q633 -25 494 34T264 196T129 432T84 713Q84 920 167 1088T412 1355T814 1454Q996 1454 1133 1397T1362 1238T1500 1002T1546 714Q1546 502 1462 335T1216 72T822 -25ZM817 208Q929 208 1011 248T1147 360T1228
523T1255 714Q1255 821 1226 913T1142 1074T1005 1182T817 1221Q708 1221 625 1181T487 1070T403 908T375 714Q375 612 402 521T484 359T622 248T817 208ZM1036 1585Q971 1585 934 1621T896 1731Q896 1797 934 1835T1038 1874Q1104 1874 1141 1834T1179 1731Q1179
1658 1142 1622T1036 1585ZM592 1585Q527 1585 489 1621T451 1731Q451 1797 489 1835T594 1874Q660 1874 697 1834T735 1731Q735 1658 697 1622T592 1585Z" />
<glyph unicode="&#xd7;" horiz-adv-x="1152" d="M890 132Q820 204 753 270T628 394L365 657Q307 715 242 781T105 918L263 1076Q334 1006 400 940T524 815L787 552Q845 494 911 428T1048 291L890 132ZM263 132L105 291Q152 337 197 382T284 470T366 552L629 815Q688
874 754 940T890 1076L1048 918Q978 848 912 782T787 657L524 394Q467 337 401 270T263 132Z" />
<glyph unicode="&#xd8;" horiz-adv-x="1630" d="M822 -25Q633 -25 494 34T264 196T129 432T84 713Q84 920 167 1088T412 1355T814 1454Q996 1454 1133 1397T1362 1238T1500 1002T1546 714Q1546 502 1462 335T1216 72T822 -25ZM817 208Q929 208 1011 248T1147 360T1228
523T1255 714Q1255 821 1226 913T1142 1074T1005 1182T817 1221Q708 1221 625 1181T487 1070T403 908T375 714Q375 612 402 521T484 359T622 248T817 208ZM279 -144L150 -36Q254 101 346 222T546 483L939 997Q1049 1140 1144 1264T1339 1520L1474 1419Q1372 1286
1278 1163T1075 896L677 376Q569 235 474 110T279 -144Z" />
<glyph unicode="&#xd9;" horiz-adv-x="1458" d="M731 -25Q519 -25 389 44T200 241T140 542Q140 582 140 647T140 791T140 949Q140 1086 140 1197T140 1426H420Q420 1308 420 1197T420 949V560Q420 449 451 370T550 250T730 208Q843 208 910 249T1007 370T1037
561V949Q1037 1086 1037 1197T1037 1426H1317Q1317 1308 1317 1197T1317 949Q1317 870 1317 791T1317 645T1317 541Q1317 369 1255 242T1064 45T731 -25ZM717 1559Q664 1620 609 1681T499 1804T386 1932L653 1937Q717 1843 781 1750T910 1562L717 1559Z" />
<glyph unicode="&#xda;" horiz-adv-x="1458" d="M731 -25Q519 -25 389 44T200 241T140 542Q140 582 140 647T140 791T140 949Q140 1086 140 1197T140 1426H420Q420 1308 420 1197T420 949V560Q420 449 451 370T550 250T730 208Q843 208 910 249T1007 370T1037
561V949Q1037 1086 1037 1197T1037 1426H1317Q1317 1308 1317 1197T1317 949Q1317 870 1317 791T1317 645T1317 541Q1317 369 1255 242T1064 45T731 -25ZM552 1559Q617 1653 681 1746T808 1932L1076 1937Q1019 1872 964 1809T853 1684T745 1562L552 1559Z" />
<glyph unicode="&#xdb;" horiz-adv-x="1458" d="M731 -25Q519 -25 389 44T200 241T140 542Q140 582 140 647T140 791T140 949Q140 1086 140 1197T140 1426H420Q420 1308 420 1197T420 949V560Q420 449 451 370T550 250T730 208Q843 208 910 249T1007 370T1037
561V949Q1037 1086 1037 1197T1037 1426H1317Q1317 1308 1317 1197T1317 949Q1317 870 1317 791T1317 645T1317 541Q1317 369 1255 242T1064 45T731 -25ZM927 1557Q870 1626 813 1694T696 1834H762Q704 1764 648 1697T534 1561H341Q405 1653 469 1746T597 1934H862Q926
1839 990 1746T1118 1560L927 1557Z" />
<glyph unicode="&#xdc;" horiz-adv-x="1458" d="M731 -25Q519 -25 389 44T200 241T140 542Q140 582 140 647T140 791T140 949Q140 1086 140 1197T140 1426H420Q420 1308 420 1197T420 949V560Q420 449 451 370T550 250T730 208Q843 208 910 249T1007 370T1037
561V949Q1037 1086 1037 1197T1037 1426H1317Q1317 1308 1317 1197T1317 949Q1317 870 1317 791T1317 645T1317 541Q1317 369 1255 242T1064 45T731 -25ZM952 1585Q887 1585 850 1621T812 1731Q812 1797 850 1835T954 1874Q1020 1874 1057 1834T1095 1731Q1095
1658 1058 1622T952 1585ZM508 1585Q443 1585 405 1621T367 1731Q367 1797 405 1835T510 1874Q576 1874 613 1834T651 1731Q651 1658 613 1622T508 1585Z" />
<glyph unicode="&#xdd;" horiz-adv-x="1343" d="M540 521L241 1070Q193 1158 149 1239T46 1426H364Q407 1339 437 1276T495 1158T555 1034L662 814H687L792 1027Q827 1098 855 1156T915 1277T990 1426H1299Q1250 1336 1202 1246T1106 1071L808 521H540ZM534 0Q534
116 534 225T534 467V756H815V467Q815 334 815 225T815 0H534ZM495 1559Q560 1653 624 1746T751 1932L1019 1937Q962 1872 907 1809T796 1684T688 1562L495 1559Z" />
<glyph unicode="&#xde;" horiz-adv-x="1283" d="M155 0Q155 116 155 225T155 467V950Q155 1086 155 1197T155 1426H431Q431 1308 431 1197T431 950V467Q431 334 431 225T431 0H155ZM701 291Q653 291 597 291T488 291T396 291V513H640Q740 513 804 538T898 616T929
756Q929 825 907 867T849 932T770 963T685 971H396V1195Q458 1195 533 1195T704 1195Q874 1195 987 1152T1157 1014T1214 759Q1214 622 1164 517T1002 351T701 291Z" />
<glyph unicode="&#xdf;" horiz-adv-x="1221" d="M715 -10Q685 -10 653 -7T594 1V184Q605 182 621 181T655 179Q768 179 824 248T880 419Q880 501 846 557T752 642T615 671V861Q672 861 720 888T796 964T825 1079Q825 1168 775 1224T634 1281Q541 1281 489 1222T437
1039V434Q437 310 437 209T437 0H183Q183 108 183 209T183 434V534Q183 658 183 781T183 1030Q183 1255 304 1374T642 1493Q771 1493 866 1450T1013 1327T1065 1136Q1065 1052 1038 991T967 888T873 824V803Q922 784 970 753T1056 675T1117 563T1140 412Q1140 223
1027 107T715 -10ZM41 804V996H256V804H41Z" />
<glyph unicode="&#xe0;" horiz-adv-x="1041" d="M376 -23Q292 -23 226 12T122 113T83 274Q83 357 112 414T188 508T293 565T410 594L695 636Q698 706 672 744T596 796T483 811Q449 811 410 806T327 789T236 762T140 722L128 943Q165 957 211 971T313 996T427 1014T550
1021Q672 1021 758 986T891 873T937 671Q937 623 937 552T937 422V312Q937 239 937 164T937 0H712L697 130H676Q648 93 606 59T507 1T376 -23ZM468 176Q510 176 551 196T627 252T688 338V495Q675 486 654 479T590 462T472 439Q429 431 400 412T354 363T338 294Q338
229 377 203T468 176ZM773 1139Q720 1206 665 1273T555 1410T442 1549L709 1555Q773 1452 837 1349T966 1142L773 1139Z" />
<glyph unicode="&#xe1;" horiz-adv-x="1041" d="M376 -23Q292 -23 226 12T122 113T83 274Q83 357 112 414T188 508T293 565T410 594L695 636Q698 706 672 744T596 796T483 811Q449 811 410 806T327 789T236 762T140 722L128 943Q165 957 211 971T313 996T427 1014T550
1021Q672 1021 758 986T891 873T937 671Q937 623 937 552T937 422V312Q937 239 937 164T937 0H712L697 130H676Q648 93 606 59T507 1T376 -23ZM468 176Q510 176 551 196T627 252T688 338V495Q675 486 654 479T590 462T472 439Q429 431 400 412T354 363T338 294Q338
229 377 203T468 176ZM608 1139Q673 1242 737 1344T864 1549L1132 1555Q1075 1484 1019 1415T909 1277T801 1142L608 1139Z" />
<glyph unicode="&#xe2;" horiz-adv-x="1041" d="M376 -23Q292 -23 226 12T122 113T83 274Q83 357 112 414T188 508T293 565T410 594L695 636Q698 706 672 744T596 796T483 811Q449 811 410 806T327 789T236 762T140 722L128 943Q165 957 211 971T313 996T427 1014T550
1021Q672 1021 758 986T891 873T937 671Q937 623 937 552T937 422V312Q937 239 937 164T937 0H712L697 130H676Q648 93 606 59T507 1T376 -23ZM468 176Q510 176 551 196T627 252T688 338V495Q675 486 654 479T590 462T472 439Q429 431 400 412T354 363T338 294Q338
229 377 203T468 176ZM983 1137Q926 1212 870 1286T755 1437H816Q759 1361 703 1288T590 1141H397Q461 1242 525 1345T653 1551H918Q982 1448 1046 1345T1174 1140L983 1137Z" />
<glyph unicode="&#xe3;" horiz-adv-x="1041" d="M376 -23Q292 -23 226 12T122 113T83 274Q83 357 112 414T188 508T293 565T410 594L695 636Q698 706 672 744T596 796T483 811Q449 811 410 806T327 789T236 762T140 722L128 943Q165 957 211 971T313 996T427 1014T550
1021Q672 1021 758 986T891 873T937 671Q937 623 937 552T937 422V312Q937 239 937 164T937 0H712L697 130H676Q648 93 606 59T507 1T376 -23ZM468 176Q510 176 551 196T627 252T688 338V495Q675 486 654 479T590 462T472 439Q429 431 400 412T354 363T338 294Q338
229 377 203T468 176ZM961 1126Q900 1126 854 1150T773 1207T707 1263T645 1287Q595 1287 574 1251T547 1161H409Q409 1311 466 1390T621 1470Q681 1470 726 1446T805 1390T871 1334T934 1310Q983 1310 1003 1346T1027 1436H1165Q1165 1287 1110 1207T961 1126Z"
/>
<glyph unicode="&#xe4;" horiz-adv-x="1041" d="M376 -23Q292 -23 226 12T122 113T83 274Q83 357 112 414T188 508T293 565T410 594L695 636Q698 706 672 744T596 796T483 811Q449 811 410 806T327 789T236 762T140 722L128 943Q165 957 211 971T313 996T427 1014T550
1021Q672 1021 758 986T891 873T937 671Q937 623 937 552T937 422V312Q937 239 937 164T937 0H712L697 130H676Q648 93 606 59T507 1T376 -23ZM468 176Q510 176 551 196T627 252T688 338V495Q675 486 654 479T590 462T472 439Q429 431 400 412T354 363T338 294Q338
229 377 203T468 176ZM1008 1165Q943 1165 906 1201T868 1311Q868 1377 906 1415T1010 1454Q1076 1454 1113 1414T1151 1311Q1151 1238 1114 1202T1008 1165ZM564 1165Q499 1165 461 1201T423 1311Q423 1377 461 1415T566 1454Q632 1454 669 1414T707 1311Q707
1238 669 1202T564 1165Z" />
<glyph unicode="&#xe5;" horiz-adv-x="1041" d="M376 -23Q292 -23 226 12T122 113T83 274Q83 357 112 414T188 508T293 565T410 594L695 636Q698 706 672 744T596 796T483 811Q449 811 410 806T327 789T236 762T140 722L128 943Q165 957 211 971T313 996T427 1014T550
1021Q672 1021 758 986T891 873T937 671Q937 623 937 552T937 422V312Q937 239 937 164T937 0H712L697 130H676Q648 93 606 59T507 1T376 -23ZM468 176Q510 176 551 196T627 252T688 338V495Q675 486 654 479T590 462T472 439Q429 431 400 412T354 363T338 294Q338
229 377 203T468 176ZM785 1110Q709 1110 653 1136T564 1213T531 1339Q531 1442 601 1503T787 1565Q863 1565 920 1536T1009 1456T1041 1339Q1041 1263 1009 1213T919 1136T785 1110ZM785 1223Q840 1223 873 1252T907 1338Q907 1387 874 1419T787 1452Q733 1452
699 1420T665 1338Q665 1282 698 1253T785 1223Z" />
<glyph unicode="&#xe6;" horiz-adv-x="1617" d="M1199 -25Q1024 -25 912 43T745 230T691 502Q691 654 741 771T891 955T1135 1021Q1266 1021 1360 973T1505 828T1556 585Q1556 546 1555 515T1548 454L1327 543Q1329 557 1330 571T1331 599Q1331 709 1275 771T1134
834Q1068 834 1018 797T939 692T910 537V498Q910 353 987 270T1228 187Q1270 187 1322 194T1429 218T1530 259L1538 41Q1500 22 1449 7T1334 -16T1199 -25ZM453 176Q495 176 536 196T612 252T674 338V495Q660 486 639 479T575 462T457 439Q415 431 386 412T340
363T324 294Q324 229 363 203T453 176ZM384 -23Q288 -23 217 12T108 113T69 274Q69 357 98 414T174 508T279 565T395 594L680 636Q683 706 657 744T581 796T469 811Q435 811 396 806T312 789T222 762T126 722L113 943Q148 957 193 971T290 996T399 1014T515 1021Q688
1021 779 940T871 671L831 507V255Q777 157 708 96T557 6T384 -23ZM759 454V613L1398 624L1548 567V454H759Z" />
<glyph unicode="&#xe7;" horiz-adv-x="976" d="M601 -21Q434 -21 318 46T141 231T80 497Q80 647 137 765T305 952T582 1021Q641 1021 699 1012T808 987T900 948L880 726Q823 758 776 775T688 798T616 804Q490 804 415 723T339 504Q339 413 375 343T481 232T657
191Q696 191 735 198T812 219T885 257L900 35Q866 19 822 7T722 -13T601 -21ZM767 -438Q742 -438 718 -436T672 -430T635 -421V-275Q648 -280 673 -284T730 -288Q790 -288 816 -269T842 -217Q842 -198 830 -181T786 -150T695 -127L769 48H905V0L860 -104Q929 -116
969 -139T1025 -195T1042 -266Q1042 -314 1016 -353T929 -415T767 -438Z" />
<glyph unicode="&#xe8;" horiz-adv-x="1054" d="M622 -25Q434 -25 314 43T137 230T80 502Q80 654 134 771T295 955T555 1021Q688 1021 782 973T928 828T979 585Q979 546 978 515T971 454L750 543Q752 557 753 571T754 599Q754 709 699 771T557 834Q491 834 441
797T362 692T333 537V498Q333 401 367 332T472 225T651 187Q693 187 745 194T852 218T953 259L961 41Q923 22 872 7T758 -16T622 -25ZM180 454V613L821 624L971 567V454H180ZM795 1139Q742 1206 687 1273T577 1410T464 1549L731 1555Q795 1452 859 1349T988 1142L795
1139Z" />
<glyph unicode="&#xe9;" horiz-adv-x="1054" d="M622 -25Q434 -25 314 43T137 230T80 502Q80 654 134 771T295 955T555 1021Q688 1021 782 973T928 828T979 585Q979 546 978 515T971 454L750 543Q752 557 753 571T754 599Q754 709 699 771T557 834Q491 834 441
797T362 692T333 537V498Q333 401 367 332T472 225T651 187Q693 187 745 194T852 218T953 259L961 41Q923 22 872 7T758 -16T622 -25ZM180 454V613L821 624L971 567V454H180ZM630 1139Q695 1242 759 1344T886 1549L1154 1555Q1097 1484 1041 1415T931 1277T823
1142L630 1139Z" />
<glyph unicode="&#xea;" horiz-adv-x="1054" d="M622 -25Q434 -25 314 43T137 230T80 502Q80 654 134 771T295 955T555 1021Q688 1021 782 973T928 828T979 585Q979 546 978 515T971 454L750 543Q752 557 753 571T754 599Q754 709 699 771T557 834Q491 834 441
797T362 692T333 537V498Q333 401 367 332T472 225T651 187Q693 187 745 194T852 218T953 259L961 41Q923 22 872 7T758 -16T622 -25ZM180 454V613L821 624L971 567V454H180ZM1005 1137Q948 1212 892 1286T777 1437H838Q781 1361 725 1288T612 1141H419Q483 1242
547 1345T675 1551H940Q1004 1448 1068 1345T1196 1140L1005 1137Z" />
<glyph unicode="&#xeb;" horiz-adv-x="1054" d="M622 -25Q434 -25 314 43T137 230T80 502Q80 654 134 771T295 955T555 1021Q688 1021 782 973T928 828T979 585Q979 546 978 515T971 454L750 543Q752 557 753 571T754 599Q754 709 699 771T557 834Q491 834 441
797T362 692T333 537V498Q333 401 367 332T472 225T651 187Q693 187 745 194T852 218T953 259L961 41Q923 22 872 7T758 -16T622 -25ZM180 454V613L821 624L971 567V454H180ZM1030 1165Q965 1165 928 1201T890 1311Q890 1377 928 1415T1032 1454Q1098 1454 1135
1414T1173 1311Q1173 1238 1136 1202T1030 1165ZM586 1165Q521 1165 483 1201T445 1311Q445 1377 483 1415T588 1454Q654 1454 691 1414T729 1311Q729 1238 691 1202T586 1165Z" />
<glyph unicode="&#xec;" horiz-adv-x="543" d="M144 0Q144 108 144 209T144 434V534Q144 630 144 707T144 854T144 996L398 1004Q398 931 398 860T398 711T398 534V434Q398 310 398 209T398 0H144ZM257 1139Q204 1206 149 1273T39 1410T-74 1549L193 1555Q257
1452 321 1349T450 1142L257 1139Z" />
<glyph unicode="&#xed;" horiz-adv-x="543" d="M144 0Q144 108 144 209T144 434V534Q144 630 144 707T144 854T144 996L398 1004Q398 931 398 860T398 711T398 534V434Q398 310 398 209T398 0H144ZM92 1139Q157 1242 221 1344T348 1549L616 1555Q559 1484 503
1415T393 1277T285 1142L92 1139Z" />
<glyph unicode="&#xee;" horiz-adv-x="543" d="M144 0Q144 108 144 209T144 434V534Q144 630 144 707T144 854T144 996L398 1004Q398 931 398 860T398 711T398 534V434Q398 310 398 209T398 0H144ZM433 1137Q393 1205 351 1273T268 1411T184 1551H388Q444 1448
500 1346T613 1140L433 1137ZM-74 1141Q-16 1244 39 1345T152 1551H356Q313 1481 272 1412T189 1276T108 1141H-74Z" />
<glyph unicode="&#xef;" horiz-adv-x="543" d="M144 0Q144 108 144 209T144 434V534Q144 630 144 707T144 854T144 996L398 1004Q398 931 398 860T398 711T398 534V434Q398 310 398 209T398 0H144ZM459 1165Q397 1165 362 1201T326 1311Q326 1377 362 1415T461
1454Q524 1454 559 1414T595 1311Q595 1262 579 1230T532 1182T459 1165ZM81 1165Q19 1165 -17 1201T-53 1311Q-53 1377 -17 1415T83 1454Q146 1454 181 1414T216 1311Q216 1262 200 1230T154 1182T81 1165Z" />
<glyph unicode="&#xf0;" horiz-adv-x="1187" d="M599 -25Q424 -25 309 46T137 233T80 483Q80 620 132 725T276 891T490 952Q541 952 596 941T704 906T798 844L840 866Q882 807 891 736T866 606Q815 668 764 698T669 737T593 747Q508 747 452 709T367 607T338 473Q338
400 367 335T453 227T597 185Q724 185 785 299T847 631Q847 797 788 940T614 1206Q559 1266 491 1321T340 1429L547 1507Q622 1464 690 1413T817 1301Q952 1166 1029 995T1107 604Q1107 413 1054 272T888 53T599 -25ZM324 1044L271 1203Q363 1233 446 1260T604
1313L700 1344Q772 1368 855 1395T1031 1453L1084 1295Q994 1265 910 1237T750 1185L658 1154Q584 1130 499 1102T324 1044Z" />
<glyph unicode="&#xf1;" horiz-adv-x="1153" d="M139 0Q139 108 139 209T139 434V534Q139 647 139 763T139 996L355 1009L365 832H388Q421 880 469 923T582 994T730 1022Q883 1022 958 933T1034 668Q1034 603 1034 549T1034 434Q1034 313 1034 211T1034 0H780Q780
108 780 209T780 421V590Q780 688 747 738T626 788Q575 788 533 768T456 713T393 635V421Q393 307 393 208T393 0H139ZM1017 1126Q956 1126 910 1150T829 1207T763 1263T701 1287Q651 1287 630 1251T603 1161H465Q465 1311 522 1390T677 1470Q737 1470 782 1446T861
1390T927 1334T990 1310Q1039 1310 1059 1346T1083 1436H1221Q1221 1287 1166 1207T1017 1126Z" />
<glyph unicode="&#xf2;" horiz-adv-x="1195" d="M602 -25Q470 -25 372 17T209 134T112 303T80 502Q80 651 140 768T315 954T597 1022Q725 1022 821 983T983 872T1082 707T1115 502Q1115 352 1055 233T879 45T602 -25ZM601 185Q687 185 743 230T828 348T856 502Q856
598 825 667T735 774T600 812Q515 812 457 771T369 659T339 502Q339 420 368 348T455 231T601 185ZM839 1139Q786 1206 731 1273T621 1410T508 1549L775 1555Q839 1452 903 1349T1032 1142L839 1139Z" />
<glyph unicode="&#xf3;" horiz-adv-x="1195" d="M602 -25Q470 -25 372 17T209 134T112 303T80 502Q80 651 140 768T315 954T597 1022Q725 1022 821 983T983 872T1082 707T1115 502Q1115 352 1055 233T879 45T602 -25ZM601 185Q687 185 743 230T828 348T856 502Q856
598 825 667T735 774T600 812Q515 812 457 771T369 659T339 502Q339 420 368 348T455 231T601 185ZM674 1139Q739 1242 803 1344T930 1549L1198 1555Q1141 1484 1085 1415T975 1277T867 1142L674 1139Z" />
<glyph unicode="&#xf4;" horiz-adv-x="1195" d="M602 -25Q470 -25 372 17T209 134T112 303T80 502Q80 651 140 768T315 954T597 1022Q725 1022 821 983T983 872T1082 707T1115 502Q1115 352 1055 233T879 45T602 -25ZM601 185Q687 185 743 230T828 348T856 502Q856
598 825 667T735 774T600 812Q515 812 457 771T369 659T339 502Q339 420 368 348T455 231T601 185ZM1049 1137Q992 1212 936 1286T821 1437H882Q825 1361 769 1288T656 1141H463Q527 1242 591 1345T719 1551H984Q1048 1448 1112 1345T1240 1140L1049 1137Z" />
<glyph unicode="&#xf5;" horiz-adv-x="1195" d="M602 -25Q470 -25 372 17T209 134T112 303T80 502Q80 651 140 768T315 954T597 1022Q725 1022 821 983T983 872T1082 707T1115 502Q1115 352 1055 233T879 45T602 -25ZM601 185Q687 185 743 230T828 348T856 502Q856
598 825 667T735 774T600 812Q515 812 457 771T369 659T339 502Q339 420 368 348T455 231T601 185ZM1027 1126Q966 1126 920 1150T839 1207T773 1263T711 1287Q661 1287 640 1251T613 1161H475Q475 1311 532 1390T687 1470Q747 1470 792 1446T871 1390T937 1334T1000
1310Q1049 1310 1069 1346T1093 1436H1231Q1231 1287 1176 1207T1027 1126Z" />
<glyph unicode="&#xf6;" horiz-adv-x="1195" d="M602 -25Q470 -25 372 17T209 134T112 303T80 502Q80 651 140 768T315 954T597 1022Q725 1022 821 983T983 872T1082 707T1115 502Q1115 352 1055 233T879 45T602 -25ZM601 185Q687 185 743 230T828 348T856 502Q856
598 825 667T735 774T600 812Q515 812 457 771T369 659T339 502Q339 420 368 348T455 231T601 185ZM1074 1165Q1009 1165 972 1201T934 1311Q934 1377 972 1415T1076 1454Q1142 1454 1179 1414T1217 1311Q1217 1238 1180 1202T1074 1165ZM630 1165Q565 1165 527
1201T489 1311Q489 1377 527 1415T632 1454Q698 1454 735 1414T773 1311Q773 1238 735 1202T630 1165Z" />
<glyph unicode="&#xf7;" horiz-adv-x="1150" d="M110 493V715Q210 715 303 715T478 715H672Q754 715 847 715T1041 715V493Q941 493 848 493T672 493H478Q397 493 304 493T110 493ZM572 73Q505 73 465 114T425 219Q425 282 465 321T573 361Q642 361 682 322T722
219Q722 155 682 114T572 73ZM573 845Q504 845 465 886T425 991Q425 1054 465 1094T574 1134Q642 1134 682 1094T722 991Q722 928 682 887T573 845Z" />
<glyph unicode="&#xf8;" horiz-adv-x="1194" d="M602 -25Q470 -25 372 17T210 134T113 303T80 502Q80 651 140 768T315 953T598 1021Q725 1021 821 982T983 872T1082 707T1116 502Q1116 353 1055 234T879 45T602 -25ZM600 182Q688 182 745 227T831 346T859 502Q859
599 827 669T737 777T600 815Q514 815 455 774T365 661T335 502Q335 419 365 346T454 228T600 182ZM209 -142L95 -50Q173 52 242 142T389 334L678 712Q761 821 831 912T974 1099L1092 1012Q1017 915 946 822T794 623L501 240Q421 136 352 45T209 -142Z" />
<glyph unicode="&#xf9;" horiz-adv-x="1133" d="M423 -25Q270 -25 195 64T119 329Q119 395 119 444T119 544Q119 640 119 715T119 857T119 996L373 1004Q373 897 373 793T373 574V402Q373 304 406 254T527 204Q576 204 617 224T693 279T755 357V574Q755 688 755
788T755 996H1009Q1009 889 1009 785T1009 544V434Q1009 310 1009 209T1009 0H793L783 165H760Q727 117 679 74T567 3T423 -25ZM807 1139Q754 1206 699 1273T589 1410T476 1549L743 1555Q807 1452 871 1349T1000 1142L807 1139Z" />
<glyph unicode="&#xfa;" horiz-adv-x="1133" d="M423 -25Q270 -25 195 64T119 329Q119 395 119 444T119 544Q119 640 119 715T119 857T119 996L373 1004Q373 897 373 793T373 574V402Q373 304 406 254T527 204Q576 204 617 224T693 279T755 357V574Q755 688 755
788T755 996H1009Q1009 889 1009 785T1009 544V434Q1009 310 1009 209T1009 0H793L783 165H760Q727 117 679 74T567 3T423 -25ZM642 1139Q707 1242 771 1344T898 1549L1166 1555Q1109 1484 1053 1415T943 1277T835 1142L642 1139Z" />
<glyph unicode="&#xfb;" horiz-adv-x="1133" d="M423 -25Q270 -25 195 64T119 329Q119 395 119 444T119 544Q119 640 119 715T119 857T119 996L373 1004Q373 897 373 793T373 574V402Q373 304 406 254T527 204Q576 204 617 224T693 279T755 357V574Q755 688 755
788T755 996H1009Q1009 889 1009 785T1009 544V434Q1009 310 1009 209T1009 0H793L783 165H760Q727 117 679 74T567 3T423 -25ZM1017 1137Q960 1212 904 1286T789 1437H850Q793 1361 737 1288T624 1141H431Q495 1242 559 1345T687 1551H952Q1016 1448 1080 1345T1208
1140L1017 1137Z" />
<glyph unicode="&#xfc;" horiz-adv-x="1133" d="M423 -25Q270 -25 195 64T119 329Q119 395 119 444T119 544Q119 640 119 715T119 857T119 996L373 1004Q373 897 373 793T373 574V402Q373 304 406 254T527 204Q576 204 617 224T693 279T755 357V574Q755 688 755
788T755 996H1009Q1009 889 1009 785T1009 544V434Q1009 310 1009 209T1009 0H793L783 165H760Q727 117 679 74T567 3T423 -25ZM1042 1165Q977 1165 940 1201T902 1311Q902 1377 940 1415T1044 1454Q1110 1454 1147 1414T1185 1311Q1185 1238 1148 1202T1042 1165ZM598
1165Q533 1165 495 1201T457 1311Q457 1377 495 1415T600 1454Q666 1454 703 1414T741 1311Q741 1238 703 1202T598 1165Z" />
<glyph unicode="&#xfd;" horiz-adv-x="1077" d="M240 -392Q281 -291 322 -187T404 17V-34Q368 69 331 173T257 378L193 558Q155 665 115 777T36 996L310 1004Q343 889 374 779T439 553L520 267H543L632 553Q667 665 701 774T770 996H1041Q1010 916 981 841T917
676T833 461L724 181Q650 -9 599 -142T504 -384L240 -392ZM615 1139Q680 1242 744 1344T871 1549L1139 1555Q1082 1484 1026 1415T916 1277T808 1142L615 1139Z" />
<glyph unicode="&#xfe;" horiz-adv-x="1184" d="M139 -392Q139 -284 139 -179T139 50V987Q139 1110 139 1229T139 1465L393 1489Q393 1371 393 1247T393 987V882H416Q444 920 485 952T579 1003T699 1022Q828 1022 918 954T1055 767T1102 500Q1102 361 1058 241T923
48T694 -25Q631 -25 580 -9T486 39T410 114H393V37Q393 -77 393 -176T393 -384L139 -392ZM602 194Q685 194 738 237T817 350T842 498Q842 581 816 649T736 759T600 801Q559 801 521 789T450 753T393 695V322Q416 283 446 254T515 210T602 194Z" />
<glyph unicode="&#xff;" horiz-adv-x="1077" d="M240 -392Q281 -291 322 -187T404 17V-34Q368 69 331 173T257 378L193 558Q155 665 115 777T36 996L310 1004Q343 889 374 779T439 553L520 267H543L632 553Q667 665 701 774T770 996H1041Q1010 916 981 841T917
676T833 461L724 181Q650 -9 599 -142T504 -384L240 -392ZM1015 1165Q950 1165 913 1201T875 1311Q875 1377 913 1415T1017 1454Q1083 1454 1120 1414T1158 1311Q1158 1238 1121 1202T1015 1165ZM571 1165Q506 1165 468 1201T430 1311Q430 1377 468 1415T573 1454Q639
1454 676 1414T714 1311Q714 1238 676 1202T571 1165Z" />
<glyph unicode="&#x2013;" horiz-adv-x="1211" d="M110 489V709Q210 709 303 709T478 709H733Q815 709 908 709T1101 709V489Q1001 489 908 489T733 489H478Q397 489 304 489T110 489Z" />
<glyph unicode="&#x2014;" horiz-adv-x="1590" d="M110 489V709Q202 709 290 709T460 709T619 709H971Q1047 709 1129 709T1300 709T1481 709V489Q1389 489 1301 489T1130 489T971 489H619Q543 489 461 489T290 489T110 489Z" />
<glyph unicode="&#x2018;" horiz-adv-x="487" d="M226 877Q153 885 121 934T88 1053Q88 1121 108 1186T162 1309T238 1414T322 1495L448 1498Q411 1441 388 1383T355 1259T344 1119Q344 1064 344 1005T344 887L226 877Z" />
<glyph unicode="&#x2019;" horiz-adv-x="487" d="M38 872Q76 929 98 987T131 1111T142 1251Q142 1307 142 1365T142 1483L260 1493Q334 1485 366 1437T399 1317Q399 1249 379 1184T324 1061T249 956T164 875L38 872Z" />
<glyph unicode="&#x201a;" horiz-adv-x="487" d="M38 -314Q76 -257 98 -199T131 -75T142 65Q142 121 142 179T142 297L260 307Q334 299 366 251T399 131Q399 63 379 -2T324 -125T249 -230T164 -311L38 -314Z" />
<glyph unicode="&#x201c;" horiz-adv-x="881" d="M620 877Q547 885 515 934T482 1053Q482 1121 502 1186T556 1309T632 1414T716 1495L842 1498Q805 1441 782 1383T749 1259T738 1119Q738 1064 738 1005T738 887L620 877ZM226 877Q153 885 121 934T88 1053Q88
1121 108 1186T162 1309T238 1414T322 1495L448 1498Q411 1441 388 1383T355 1259T344 1119Q344 1064 344 1005T344 887L226 877Z" />
<glyph unicode="&#x201d;" horiz-adv-x="881" d="M432 872Q470 929 492 987T525 1111T536 1251Q536 1307 536 1365T536 1483L654 1493Q728 1485 760 1437T793 1317Q793 1249 773 1184T718 1061T643 956T558 875L432 872ZM38 872Q76 929 98 987T131 1111T142 1251Q142
1307 142 1365T142 1483L260 1493Q334 1485 366 1437T399 1317Q399 1249 379 1184T324 1061T249 956T164 875L38 872Z" />
<glyph unicode="&#x201e;" horiz-adv-x="881" d="M432 -314Q470 -257 492 -199T525 -75T536 65Q536 121 536 179T536 297L654 307Q728 299 760 251T793 131Q793 63 773 -2T718 -125T643 -230T558 -311L432 -314ZM38 -314Q76 -257 98 -199T131 -75T142 65Q142 121
142 179T142 297L260 307Q334 299 366 251T399 131Q399 63 379 -2T324 -125T249 -230T164 -311L38 -314Z" />
<glyph unicode="&#x2022;" horiz-adv-x="856" d="M427 309Q337 309 273 348T174 453T139 601Q139 682 173 747T272 849T428 887Q518 887 583 850T682 747T717 601Q717 519 683 453T583 348T427 309Z" />
<glyph unicode="&#x2039;" horiz-adv-x="729" d="M408 -4Q319 124 230 251T50 506Q140 634 229 761T408 1016L659 1001Q573 880 488 758T317 514V492Q403 372 488 251T659 9L408 -4Z" />
<glyph unicode="&#x203a;" horiz-adv-x="729" d="M321 -4L70 11Q156 133 241 255T412 498V520Q327 641 242 762T70 1003L321 1016Q411 889 500 762T679 506Q590 379 501 252T321 -4Z" />
</font>
</defs>
</svg>
